<?xml version="1.0" standalone="no"?>
<!DOCTYPE svg PUBLIC "-//W3C//DTD SVG 1.1//EN" "http://www.w3.org/Graphics/SVG/1.1/DTD/svg11.dtd">
<svg xmlns="http://www.w3.org/2000/svg">
<defs >
<font id="JosefinSans" horiz-adv-x="547" ><font-face
    font-family="Josefin Sans Thin Thin"
    units-per-em="1000"
    panose-1="0 0 0 0 0 0 0 0 0 0"
    ascent="750"
    descent="-250"
    alphabetic="0" />
<glyph unicode=" " horiz-adv-x="301" />
<glyph unicode="!" horiz-adv-x="201" d="M91 751H109V168H91V751ZM101 33Q91 33 84 40T76 58Q76 68 83 75T101 82Q111 82 118 75T125 58Q125 47 118 40T101 33Z" />
<glyph unicode="&quot;" horiz-adv-x="296" d="M86 721Q85 658 84 597T82 472H63V721H86ZM219 721Q218 658 217 597T215 472H196V721H219Z" />
<glyph unicode="#" horiz-adv-x="572" d="M214 644Q208 589 201 534T188 424H353Q359 479 366 534T380 644H399Q392 589 385 534T372 424H505Q505 419 505 415T504 405H369Q364 364 360 323T350 241H483Q482 236 482 232T481 223H347Q341 167 335 112T322 0H303Q309
56 315 111T328 223H163Q156 167 150 112T137 0H118Q125 56 131 111T144 223H29Q29 228 29 232T30 241H147Q152 282 156 323T166 405H52Q52 410 52 414T53 424H169Q175 479 182 534T195 644H214ZM185 405Q180 364 176 323T166 241H331Q336 282 340 323T350 405H185Z"
/>
<glyph unicode="$" horiz-adv-x="567" d="M276 -68V380V388V766H294V383V375V-68H276ZM447 652Q419 664 374 676T282 689Q205 689 159 650T112 552Q112 508 137 480T203 432T291 394Q327 381 362 365T426 327T472 271T489 189Q489 128 461 84T385 16T277 -8Q220
-8 176 6T103 38T61 63L71 81Q92 66 124 50T194 22T273 10Q322 10 367 29T440 88T469 188Q469 247 441 282T370 339T278 379Q243 391 210 405T151 439T108 485T92 549Q92 596 117 631T184 686T280 706Q318 706 368 695T455 667L447 652Z" />
<glyph unicode="%" horiz-adv-x="732" d="M219 223Q188 223 163 239T122 288T107 365Q107 409 122 440T162 488T219 505Q250 505 275 489T316 441T331 365Q331 319 316 288T275 240T219 223ZM126 364Q126 304 153 272T219 240Q258 240 285 272T312 364Q312 421
285 454T219 488Q180 488 153 457T126 364ZM527 3Q496 3 471 19T430 67T415 144Q415 188 430 219T470 267T527 284Q558 284 583 268T624 220T639 144Q639 98 624 67T583 19T527 3ZM434 143Q434 84 461 52T527 19Q566 19 593 51T621 143Q621 200 594 233T527 267Q488
267 461 236T434 143ZM533 508L227 0H205L512 508H533Z" />
<glyph unicode="&amp;" horiz-adv-x="702" d="M605 0Q604 0 601 0T593 0T585 0T581 0L198 494Q190 508 183 523T171 557T166 597Q166 642 187 676T244 730T323 749Q364 749 399 735T459 704L450 690Q420 708 389 719T325 731Q266 731 227 695T187 600Q187 574
194 552T208 517T216 504L605 0ZM300 369Q265 368 230 355T164 318T116 261T98 186Q98 134 126 95T200 34T302 12Q348 12 389 27T460 67T504 121L516 103Q491 56 432 25T301 -6Q234 -6 184 20T104 90T75 187Q75 230 93 265T142 328T213 370T296 387L300 369ZM603
387H625L518 105L504 122L603 387Z" />
<glyph unicode="&apos;" horiz-adv-x="148" d="M88 721Q87 658 86 597T84 472H65V721H88Z" />
<glyph unicode="(" horiz-adv-x="395" d="M144 292Q144 392 167 479T229 634T309 748L317 723Q278 679 243 615T186 469T164 292Q164 197 186 116T243 -30T317 -139L309 -163Q267 -119 229 -51T168 105T144 292V292Z" />
<glyph unicode=")" horiz-adv-x="400" d="M281 292Q281 192 258 105T196 -50T116 -163L108 -139Q147 -95 182 -31T239 115T262 292Q262 387 240 468T182 614T108 723L116 748Q158 703 196 635T257 479T281 292V292Z" />
<glyph unicode="*" horiz-adv-x="335" d="M157 559Q130 543 103 528T49 497Q46 501 44 505T38 514Q66 530 93 545T147 576Q120 592 93 608T39 641Q40 644 42 648T47 655Q74 639 101 624T157 592V720H178Q177 688 177 656T176 592Q204 607 232 623T288 654Q289
651 291 647T296 640Q268 624 241 608T185 575V575Q212 559 240 544T295 512Q292 508 290 504T284 495Q257 511 230 527T176 559Q175 528 175 497T174 434H157V559Z" />
<glyph unicode="+" horiz-adv-x="544" d="M257 411H276V242H446V223H276V51H257V223H86V242H257V411Z" />
<glyph unicode="," horiz-adv-x="184" d="M132 86Q110 34 89 -17T46 -120H28Q47 -68 66 -17T105 86H132Z" />
<glyph unicode="-" horiz-adv-x="300" d="M53 202H237V183H53V202Z" />
<glyph unicode="." horiz-adv-x="186" d="M71 22Q71 32 78 38T94 45Q103 45 109 39T116 22Q116 13 110 7T94 0Q85 0 78 6T71 22V22Z" />
<glyph unicode="/" horiz-adv-x="326" d="M314 737Q244 548 175 359T36 -19H17Q87 170 156 359T295 737H314Z" />
<glyph unicode="0" horiz-adv-x="617" d="M308 -6Q241 -6 190 21T105 96T53 202T36 326Q36 390 53 449T104 554T190 628T308 655Q376 655 427 628T512 554T563 448T581 326Q581 262 564 203T512 96T427 22T308 -6ZM308 13Q379 12 436 49T526 157T561 325Q560 422
527 492T436 599T308 636Q238 637 181 600T91 492T56 325Q57 227 90 157T181 50T308 13Z" />
<glyph unicode="1" horiz-adv-x="308" d="M59 651H190V0H170V631H59V651Z" />
<glyph unicode="2" horiz-adv-x="496" d="M53 0Q117 62 177 122T285 241T360 355T388 463Q388 513 373 547T334 602T283 631T230 640Q182 640 151 623T101 580T76 524T69 469Q69 433 79 405T108 355L96 344Q82 360 72 378T55 419T49 468Q49 522 70 565T131 633T231
659Q284 659 324 634T386 564T408 464Q408 406 379 349T301 234T198 121T91 12L86 19H453V0H53Z" />
<glyph unicode="3" horiz-adv-x="518" d="M406 651L181 375L165 377Q183 388 206 393T255 399Q295 401 330 390T392 356T434 297T449 215Q449 149 420 99T341 20T224 -8Q179 -8 140 10T74 58L84 73Q108 45 145 28T224 11Q285 11 331 37T403 109T429 216Q429 293
381 337T252 382Q225 382 198 375T153 358L149 361L374 639L377 632H86V651H406Z" />
<glyph unicode="4" horiz-adv-x="506" d="M23 181V182L391 659H392V199H488V181H392V0H372V181H23ZM375 609L56 196L51 199H372V619L375 609Z" />
<glyph unicode="5" horiz-adv-x="543" d="M254 -8Q212 -8 176 7T111 49L124 62Q148 38 181 24T251 10Q304 10 346 36T414 104T440 196Q440 247 415 288T348 355T253 380Q218 380 189 368T141 340H140V651H429V632H159V366L153 372Q172 384 201 391T257 398Q314
397 360 371T433 298T460 196Q460 140 432 94T358 20T254 -8Z" />
<glyph unicode="6" horiz-adv-x="520" d="M255 -8Q198 -8 152 19T77 93T49 197Q49 273 79 337T159 456T266 556T379 644L392 627Q308 571 246 516T145 407T91 304L85 307Q113 351 159 374T258 397Q314 397 360 370T433 296T461 194Q461 138 434 92T359 19T255
-8ZM254 10Q306 10 348 35T416 101T441 194Q441 245 416 287T349 354T254 379Q203 379 161 357T93 295T68 202V194Q68 143 93 102T160 35T254 10Z" />
<glyph unicode="7" horiz-adv-x="476" d="M448 651L158 0H134L422 641L434 632H45V651H448Z" />
<glyph unicode="8" horiz-adv-x="508" d="M49 196Q49 243 68 283T121 350T198 390Q157 403 131 437T104 512Q104 554 121 587T172 639T250 659Q295 659 328 639T378 586T396 511Q396 470 371 437T306 390Q349 379 384 351T439 284T460 196Q460 140 432 94T356
20T253 -8Q196 -8 150 19T77 93T49 196V196ZM68 196Q68 146 92 104T158 36T251 10Q303 10 346 35T414 103T440 196Q440 247 415 288T346 355T251 380Q200 380 159 355T93 289T68 196V196ZM123 511Q123 462 160 430T252 397Q305 397 340 429T376 511Q376 570 341
605T252 641Q198 641 161 606T123 511V511Z" />
<glyph unicode="9" horiz-adv-x="524" d="M253 229Q197 229 151 257T77 334T49 440Q49 499 77 546T151 622T255 651Q312 651 359 625T433 552T461 439Q461 365 431 302T352 183T244 81T130 -8L116 9Q204 67 265 122T363 226T415 313L430 318Q395 272 355 251T253
229ZM256 248Q340 248 391 297T442 435V448Q439 503 414 544T347 608T256 631Q205 631 163 606T95 537T69 440Q69 386 94 343T162 274T256 248Z" />
<glyph unicode=":" horiz-adv-x="175" d="M63 274Q63 283 69 289T85 296Q94 296 100 290T107 274Q107 264 101 258T85 252Q76 252 70 258T63 274V274ZM63 22Q63 32 69 38T85 45Q94 45 100 39T107 22Q107 13 101 7T85 0Q76 0 70 6T63 22V22Z" />
<glyph unicode=";" horiz-adv-x="201" d="M86 273Q86 282 93 288T109 295Q118 295 124 289T131 273Q131 263 125 257T109 250Q100 250 93 256T86 273V273ZM115 86Q93 34 72 -17T29 -120H10Q30 -68 49 -17T87 86H115Z" />
<glyph unicode="&lt;" horiz-adv-x="675" d="M550 469L148 238L550 7V-15L111 238L550 491V469Z" />
<glyph unicode="=" horiz-adv-x="709" d="M100 360H607V342H100V360ZM100 166H607V148H100V166Z" />
<glyph unicode="&gt;" horiz-adv-x="646" d="M114 7L515 238L114 469V491L552 238L114 -15V-15V7Z" />
<glyph unicode="?" horiz-adv-x="453" d="M205 166V245Q205 292 219 315T257 351T305 384Q344 413 369 447T394 538Q394 588 370 628T306 691T217 715Q177 715 143 700T84 657T48 593L30 598Q40 627 57 651T99 693T154 722T217 733Q272 733 316 707T387 636T413
538Q413 502 401 472T368 417T317 371Q291 351 270 339T237 306T225 241V166H205ZM219 33Q209 33 202 40T194 58Q194 68 201 75T219 82Q228 82 235 75T242 58Q242 47 235 40T219 33Z" />
<glyph unicode="@" horiz-adv-x="972" d="M401 -208Q319 -208 255 -185T146 -118T78 -10T54 134Q54 185 71 246T126 368T223 478T367 559T562 589Q639 589 704 564T817 495T891 390T918 260Q918 208 902 160T858 73T792 12T713 -10Q677 -10 656 7T630 57T634 135L638
122Q620 86 590 57T522 11T444 -6Q391 -6 350 16T286 78T265 168Q265 226 293 275T371 355T479 386Q523 386 558 371T617 328T652 266L672 378H687L648 100Q646 79 649 58T668 23T714 8Q750 8 783 29T841 86T882 167T897 260Q897 348 854 418T734 530T559 571Q454
571 374 541T237 462T144 355T91 240T74 137Q74 60 96 -1T160 -104T263 -168T404 -190Q465 -190 522 -170T631 -118L641 -134Q605 -157 566 -173T486 -199T401 -208ZM448 11Q489 11 531 33T603 93T640 181L645 222Q643 263 621 296T562 349T479 369Q428 369 384
342T312 270T285 168Q284 124 304 89T362 32T448 11Z" />
<glyph unicode="A" horiz-adv-x="709" d="M63 0L354 734H356L647 0H625L349 701L362 704L83 0H63ZM184 281H527L529 263H182L184 281Z" />
<glyph unicode="B" horiz-adv-x="573" d="M258 702Q357 702 410 661T463 523Q463 483 450 446T408 383T332 349V356Q376 350 414 327T476 267T500 181Q500 136 482 103T434 46T366 12T286 0H119V702H258ZM283 361Q368 361 405 406T443 522Q443 609 393 646T259
683H139V361H283ZM284 18Q337 18 381 36T453 89T480 178Q480 235 450 271T375 325T284 342H139V18H284Z" />
<glyph unicode="C" horiz-adv-x="690" d="M616 43Q590 28 561 17T498 -1T429 -8Q349 -8 284 20T171 97T99 210T74 347Q74 423 101 489T178 604T292 682T431 710Q482 710 528 697T616 659L606 642Q568 665 524 678T431 691Q362 691 301 665T193 591T121 481T94
346Q94 279 117 218T185 111T290 38T429 11Q478 11 522 24T604 60L616 43Z" />
<glyph unicode="D" horiz-adv-x="726" d="M119 0V702H280Q380 702 451 670T566 586T631 472T652 350Q652 270 625 206T550 95T441 25T313 0H119ZM139 19H304Q371 19 430 42T535 108T606 213T632 351Q632 408 613 466T551 574T440 652T276 682H139V19Z" />
<glyph unicode="E" horiz-adv-x="631" d="M119 702H538V683H139V364H499V345H139V19H552V0H119V702Z" />
<glyph unicode="F" horiz-adv-x="571" d="M119 702H498V683H139V353H459V334H139V0H119V702Z" />
<glyph unicode="G" horiz-adv-x="735" d="M637 43Q617 32 593 23T541 6T486 -4T432 -8Q351 -8 285 19T171 96T99 210T74 349Q74 424 102 489T179 604T293 682T432 710Q483 710 529 697T617 659L607 642Q582 657 554 668T495 685T433 691Q362 691 301 664T193 590T120
481T94 349Q94 278 117 217T185 110T291 37T430 11Q475 11 527 22T617 56V285H447V304H637V43Z" />
<glyph unicode="H" horiz-adv-x="735" d="M617 702V0H597V344H139V0H119V702H139V363H597V702H617Z" />
<glyph unicode="I" horiz-adv-x="258" d="M119 702H139V0H119V702Z" />
<glyph unicode="J" horiz-adv-x="309" d="M190 93Q190 18 165 -34T96 -113T0 -142V-142V-124Q73 -120 122 -63T171 96V702H190V93Z" />
<glyph unicode="K" horiz-adv-x="641" d="M139 365L138 331L135 334L519 702H545L254 423L588 0H562L239 410L138 314L139 0H119V702H139V365Z" />
<glyph unicode="L" horiz-adv-x="591" d="M119 702H139V19H541V0H119V702Z" />
<glyph unicode="M" horiz-adv-x="894" d="M119 0V714H120L452 242H443L775 714H776V0H756V665L758 657L448 220H446L136 657L139 664V0H119Z" />
<glyph unicode="N" horiz-adv-x="813" d="M693 -13L133 666L138 676L139 0H119V713H120L685 27L675 28V702H694V-13H693Z" />
<glyph unicode="O" horiz-adv-x="865" d="M74 350Q74 424 102 489T179 604T293 682T432 710Q506 710 571 682T685 605T763 490T792 350Q792 276 764 211T686 97T571 20T432 -8Q358 -8 293 18T179 93T102 206T74 350ZM94 349Q94 279 120 218T192 110T299 37T429
11Q500 11 562 37T671 109T745 217T772 350Q772 420 745 481T672 590T564 664T432 691Q360 691 299 664T191 588T120 479T94 349Z" />
<glyph unicode="P" horiz-adv-x="530" d="M265 702Q323 702 368 682T440 621T466 515Q466 477 454 442T415 378T348 334T250 317H139V0H119V702H265ZM250 336Q308 336 346 354T406 400T437 459T447 517Q447 557 434 588T396 640T338 672T264 683H139V336H250Z" />
<glyph unicode="Q" horiz-adv-x="879" d="M525 19H805V0H493L525 19ZM74 350Q74 424 102 489T179 604T293 682T432 710Q506 710 571 682T685 605T763 490T792 350Q792 276 764 211T686 97T571 20T432 -8Q358 -8 293 18T179 93T102 206T74 350ZM94 349Q94 279 120
218T192 110T299 37T429 11Q500 11 562 37T671 109T745 217T772 350Q772 420 745 481T672 590T564 664T432 691Q360 691 299 664T191 588T120 479T94 349Z" />
<glyph unicode="R" horiz-adv-x="617" d="M263 702Q293 702 328 692T395 660T447 603T467 515Q467 477 455 442T418 378T351 334T250 317H139V0H119V702H263ZM247 336Q307 336 345 352T406 394T437 451T447 514Q447 551 433 582T393 636T335 671T264 683H139V336H247ZM339
335L540 0H517L316 335H339Z" />
<glyph unicode="S" horiz-adv-x="551" d="M447 652Q419 664 374 676T282 689Q205 689 159 650T112 552Q112 508 137 480T203 432T291 394Q327 381 362 365T426 327T472 271T489 189Q489 128 461 84T385 16T277 -8Q220 -8 176 6T103 38T61 63L71 81Q92 66 124 50T194
22T273 10Q322 10 367 29T440 88T469 188Q469 247 441 282T370 339T278 379Q243 391 210 405T151 439T108 485T92 549Q92 596 117 631T184 686T280 706Q318 706 368 695T455 667L447 652Z" />
<glyph unicode="T" horiz-adv-x="575" d="M59 702H515V683H297V0H277V683H59V702Z" />
<glyph unicode="U" horiz-adv-x="693" d="M138 230Q138 160 165 111T239 37T346 11Q406 11 453 36T528 111T555 230V702H575V228Q575 151 545 99T463 19T346 -8V-8Q281 -8 230 19T148 98T118 228V702H138V230Z" />
<glyph unicode="V" horiz-adv-x="692" d="M76 702L352 -3H342L616 702H638L346 -32L54 702H76Z" />
<glyph unicode="W" horiz-adv-x="984" d="M54 701H76L334 5L327 7L478 424L488 401L330 -32L54 701ZM369 701H389L652 0L641 4L909 701H930L645 -32L369 701Z" />
<glyph unicode="X" horiz-adv-x="588" d="M59 702H82L539 0H515L59 702ZM49 0L281 364L295 352L72 0H49ZM289 369L501 702H524L302 355L289 369Z" />
<glyph unicode="Y" horiz-adv-x="643" d="M312 261L49 702H73L327 277L318 276L571 702H594L332 261V0H312V261Z" />
<glyph unicode="Z" horiz-adv-x="697" d="M59 0Q89 41 120 84T184 171T250 259T316 348T383 437T449 524T513 608T574 689L581 683H140Q121 683 109 686T90 699T83 728V737H104V725Q104 715 110 709T134 702H606L90 14L88 19H638V0H59Z" />
<glyph unicode="[" horiz-adv-x="344" d="M119 747H285V728H141V-130H285V-149H119V747Z" />
<glyph unicode="\" horiz-adv-x="325" d="M36 737Q105 548 174 359T314 -19H294Q224 170 155 359T16 737H36Z" />
<glyph unicode="]" horiz-adv-x="344" d="M226 -149H59V-130H204V728H59V747H226V-149Z" />
<glyph unicode="^" horiz-adv-x="470" d="M333 480Q317 504 300 529T266 579T232 629Q215 604 199 579T165 529T131 480H112Q142 525 172 570T232 661V661Q262 616 292 571T352 480H333Z" />
<glyph unicode="_" horiz-adv-x="601" d="M100 19H501V0H100V19Z" />
<glyph unicode="`" horiz-adv-x="205" d="M-12 613H10L99 480H80L-12 613Z" />
<glyph unicode="a" horiz-adv-x="542" d="M249 -6Q195 -6 151 20T81 90T54 189Q54 252 81 296T152 363T252 386Q311 386 359 353T430 266L428 253L433 378H448V0H429V129L432 115Q422 89 404 67T362 29T310 3T249 -6ZM251 11Q300 11 340 33T404 93T429 181V222Q421
263 396 296T333 349T251 369Q202 369 162 347T98 285T74 190Q74 140 98 100T162 35T251 11Z" />
<glyph unicode="b" horiz-adv-x="543" d="M293 -6Q231 -6 181 30T110 119L114 141V0H94V752H114V250L113 267Q134 320 183 353T294 386Q348 386 392 360T462 290T489 190Q489 126 462 82T391 16T293 -6ZM292 11Q347 11 387 34T448 97T469 190Q469 238 447 278T386
344T292 369Q246 369 208 350T146 297T114 221V174Q114 132 138 95T202 35T292 11Z" />
<glyph unicode="c" horiz-adv-x="420" d="M375 37Q349 17 318 6T251 -6Q196 -6 152 20T81 90T54 189Q54 244 80 288T151 359T250 386Q286 386 318 375T375 342L364 328Q341 346 312 357T251 369Q201 369 161 345T98 280T74 189Q74 140 97 100T161 35T251 11Q283
11 311 21T363 50L375 37Z" />
<glyph unicode="d" horiz-adv-x="543" d="M249 -6Q195 -6 151 20T80 90T54 190Q54 249 80 293T151 361T250 386Q310 386 360 351T433 262L429 250V752H449V0H429V130L432 114Q410 61 361 28T249 -6ZM251 11Q300 11 340 34T405 96T429 184V217Q422 259 397 293T333
348T251 369Q201 369 161 347T98 284T74 190Q74 141 98 100T162 35T251 11Z" />
<glyph unicode="e" horiz-adv-x="467" d="M251 -6Q196 -6 152 20T81 90T54 190Q54 244 80 289T151 360T251 387Q314 387 357 351T423 259L80 120L74 137L406 271L401 261Q380 305 342 337T250 369Q201 369 161 345T98 280T74 190Q74 144 96 103T157 37T251 11Q286
11 317 24T373 59L386 45Q359 22 325 8T251 -6Z" />
<glyph unicode="f" horiz-adv-x="291" d="M115 0V357H50V375H115V585Q115 682 142 719T225 757Q235 757 245 755T265 749L256 735Q251 738 244 740T226 742Q179 742 157 709T135 589V375H265V357H135V0H115Z" />
<glyph unicode="g" horiz-adv-x="543" d="M252 -182Q227 -182 201 -176T145 -154T82 -104L93 -91Q142 -139 181 -151T251 -164Q320 -164 358 -143T411 -86T429 -7L430 130L436 124Q415 66 364 30T249 -6Q195 -6 151 20T81 90T54 190Q54 248 81 292T152 361T251
386Q311 386 360 353T431 267L428 256L434 378H449V-8Q449 -52 432 -91T372 -156T252 -182ZM74 190Q74 140 97 100T161 35T251 11Q300 11 340 34T405 96T430 178V221Q422 263 397 296T334 349T251 369Q202 369 162 347T98 284T74 190Z" />
<glyph unicode="h" horiz-adv-x="487" d="M94 0V752H113V272L112 285Q130 327 174 356T276 385Q329 385 360 354T393 273V0H373V271Q372 311 347 338T274 368Q232 368 196 349T137 295T114 219V0H94Z" />
<glyph unicode="i" horiz-adv-x="208" d="M94 378H114V0H94V378ZM82 753Q82 762 88 768T105 775Q114 775 120 769T127 753Q127 744 121 738T105 731Q95 731 89 737T82 753Z" />
<glyph unicode="j" horiz-adv-x="216" d="M64 -181L49 -169Q74 -141 89 -101T104 -10V378H124V-7Q124 -65 108 -108T64 -181ZM92 753Q92 762 98 768T115 775Q124 775 130 769T137 753Q137 744 131 738T115 731Q105 731 99 737T92 753Z" />
<glyph unicode="k" horiz-adv-x="423" d="M94 0V752H114V0H94ZM197 242L374 0H351L181 231L197 242ZM105 148L104 170L335 385L348 374L105 148Z" />
<glyph unicode="l" horiz-adv-x="208" d="M94 752H114V0H94V752Z" />
<glyph unicode="m" horiz-adv-x="765" d="M109 378L112 260L108 270Q126 323 172 354T275 385Q306 385 332 372T376 336T394 285L390 279Q409 331 454 358T553 385Q606 385 637 355T671 282V0H651V277Q650 312 625 338T553 368Q512 368 476 349T417 298T392 225V0H373V277Q371
312 346 338T274 368Q232 368 196 349T137 296T114 219V0H94V378H109Z" />
<glyph unicode="n" horiz-adv-x="487" d="M109 378L113 256L110 270Q126 324 172 354T276 385Q329 385 360 354T393 273V0H373V271Q372 311 347 338T274 368Q232 368 196 350T137 298T114 219V0H94V378H109Z" />
<glyph unicode="o" horiz-adv-x="503" d="M54 190Q54 244 80 289T151 360T251 387Q306 387 351 361T422 289T449 190Q449 135 423 91T351 20T251 -6Q196 -6 152 19T81 89T54 190ZM74 190Q74 140 97 100T161 35T251 11Q300 11 340 35T404 99T428 190Q428 239 404
279T340 344T251 369Q200 369 160 343T97 276T74 190Z" />
<glyph unicode="p" horiz-adv-x="543" d="M293 -6Q231 -6 182 27T111 114L114 138V-181H94V378H113L114 237L112 266Q134 319 183 352T294 386Q348 386 392 360T462 289T489 189Q489 134 463 90T392 20T293 -6ZM291 11Q341 11 381 35T445 99T469 189Q469 239 445
280T381 345T292 369Q243 369 203 345T138 281T114 192V182Q115 135 139 96T203 34T291 11Z" />
<glyph unicode="q" horiz-adv-x="543" d="M249 -6Q195 -6 151 20T81 90T54 189Q54 245 80 289T151 360T251 386Q311 386 361 351T434 262L429 238V378H449V-181H429V135L431 113Q410 61 361 28T249 -6ZM251 11Q299 11 338 33T402 94T429 180V192Q429 241 405 281T341
345T251 369Q202 369 162 345T98 280T74 189Q74 140 98 100T162 35T251 11Z" />
<glyph unicode="r" horiz-adv-x="321" d="M109 378L112 260L110 271Q121 307 146 332T206 370T277 385L276 367Q232 366 195 347T136 294T114 218V0H94V378H109Z" />
<glyph unicode="s" horiz-adv-x="344" d="M171 -8Q143 -8 110 2T54 40L66 52Q81 33 109 21T171 9Q195 9 217 17T255 44T270 97Q270 127 254 144T214 171T162 190Q125 203 97 223T69 287Q69 319 83 340T122 372T172 383Q195 383 224 373T275 339L264 326Q247 347
220 356T173 365Q155 365 136 358T102 333T88 289Q88 265 100 250T131 225T173 207Q200 197 227 186T271 156T289 102Q289 69 276 45T236 6T171 -8Z" />
<glyph unicode="t" horiz-adv-x="304" d="M133 543H153V370H279V353H153V0H133V353H45V370H133V543Z" />
<glyph unicode="u" horiz-adv-x="487" d="M211 -8Q158 -8 127 23T94 105V378H114V108Q115 67 140 40T215 10Q255 10 291 29T350 83T373 160V378H393V0H376L374 116L377 107Q368 75 343 49T283 8T211 -8Z" />
<glyph unicode="v" horiz-adv-x="431" d="M213 -17L34 378H56L222 6H210L376 378H397L219 -17H213Z" />
<glyph unicode="w" horiz-adv-x="659" d="M287 378L450 11H444L605 378H625L446 -23L325 252L213 -23L34 378H54L219 9L211 13L315 271L267 378H287Z" />
<glyph unicode="x" horiz-adv-x="369" d="M184 199L310 377H332L196 184L184 199ZM335 0H313L34 378H59L335 0ZM188 176L61 0H38L174 189L188 176Z" />
<glyph unicode="y" horiz-adv-x="431" d="M130 -181L375 378H397L154 -181H130ZM210 -5L34 378H55L226 7L210 -5Z" />
<glyph unicode="z" horiz-adv-x="368" d="M87 360Q63 360 50 368T36 407V413H53V401Q53 391 61 385T86 378H332L74 13L69 18H327V0H41L301 366L307 360H87Z" />
<glyph unicode="{" horiz-adv-x="278" d="M181 728Q161 728 150 717T134 682T129 617V469Q129 407 120 374T96 325T63 299Q80 289 95 273T119 224T129 131V-18Q129 -58 133 -82T149 -118T181 -129H237V-148H198Q178 -148 162 -146T134 -131T116 -86T109 4V151Q109
178 103 209T80 262T30 285V285V313Q62 315 79 337T103 390T109 448V629Q109 674 116 698T137 733T166 745T198 747H237V728H181Z" />
<glyph unicode="|" horiz-adv-x="223" d="M99 701H118V-232H99V701Z" />
<glyph unicode="}" horiz-adv-x="324" d="M143 -129Q163 -129 174 -118T190 -83T195 -18V165Q195 210 206 236T232 277T261 299Q243 309 228 325T204 374T195 468V617Q195 657 191 681T175 717T143 728H86V747H125Q142 747 158 745T186 733T206 699T214 629V482Q214
464 215 437T222 382T245 335T293 313V313V285Q262 284 246 264T223 217T215 162T214 117V-30Q214 -76 207 -100T187 -135T158 -146T125 -148H86V-129H143Z" />
<glyph unicode="~" horiz-adv-x="387" d="M265 457Q237 457 220 471T188 504Q174 519 160 532T125 545Q114 545 101 537T77 509T65 451L49 453Q50 492 61 516T89 551T124 563Q153 563 170 548T201 516Q214 500 229 488T265 475Q279 475 291 483T311 511T322 570L338
568Q337 529 327 505T301 469T265 457Z" />
<glyph unicode="&#xa0;" horiz-adv-x="301" />
<glyph unicode="&#xa1;" horiz-adv-x="200" d="M91 -210H109V373H91V-210ZM101 508Q91 508 84 501T76 483Q76 473 83 466T101 458Q111 458 118 465T125 483Q125 493 118 500T101 508Z" />
<glyph unicode="&#xa2;" horiz-adv-x="420" d="M234 441H251V-68H234V441ZM375 37Q349 17 318 6T251 -6Q196 -6 152 20T81 90T54 189Q54 244 80 288T151 359T250 386Q286 386 318 375T375 342L364 328Q341 346 312 357T251 369Q201 369 161 345T98 280T74 189Q74
140 97 100T161 35T251 11Q283 11 311 21T363 50L375 37Z" />
<glyph unicode="&#xa3;" horiz-adv-x="574" d="M277 329V310H63V329H277ZM128 503Q128 549 148 579T204 624T290 639Q357 639 392 614T448 549L434 540Q418 570 400 587T356 611T290 619Q235 619 204 603T160 561T147 504V151V114Q147 97 146 79T139 45T124 20H118H368Q426
20 451 30T477 71V127H496V88Q496 71 494 56T482 28T447 8T377 0H31V20H76Q99 20 110 33T124 78T128 166V503Z" />
<glyph unicode="&#xa4;" horiz-adv-x="500" d="M349 447Q381 410 381 361Q381 335 372 312T346 271L386 231L374 219Q364 229 354 239T334 259Q298 227 247 227Q223 227 201 235T161 258V258L120 218L108 230L148 270Q132 288 123 311T114 361V361Q114 386 122
408T146 448Q136 457 127 466T108 485L120 497L158 460Q175 476 198 485T247 495Q273 495 296 486T337 459V459L374 496L386 484L349 447ZM131 361Q131 329 146 302T188 260T247 244Q279 244 305 259T348 302T364 361Q364 394 348 420T306 462T247 478Q215 478
189 463T147 421T131 361V361Z" />
<glyph unicode="&#xa5;" horiz-adv-x="643" d="M151 279H485V260H151V279ZM151 117H484V98H151V117ZM312 293L49 702H73L327 309L318 308L571 702H594L332 293V0H312V293Z" />
<glyph unicode="&#xa6;" horiz-adv-x="215" d="M100 701H119V350H100V701ZM100 117H119V-233H100V117Z" />
<glyph unicode="&#xa7;" horiz-adv-x="560" d="M349 133L345 140Q381 129 410 113T458 71T477 3Q477 -39 449 -74T373 -129T265 -150Q208 -150 165 -136T92 -104T50 -78L60 -62Q80 -77 112 -93T183 -120T262 -131Q310 -131 354 -115T428 -69T457 5Q457 48 431
73T364 112T276 138Q240 148 205 159T142 188T97 231T80 298Q80 343 105 377T173 432T265 453L261 448Q223 459 189 475T134 519T113 591Q113 617 127 641T166 684T226 714T300 725Q337 725 387 714T474 686L465 671Q437 683 393 695T302 708Q250 708 212 691T154
646T133 589Q133 547 156 523T220 483T315 455Q351 446 385 435T448 405T493 360T510 293Q510 231 465 189T349 133ZM489 292Q489 337 462 364T391 409T294 441Q205 441 153 401T101 300Q101 252 128 225T206 181T324 146Q359 149 397 166T462 215T489 292Z" />
<glyph unicode="&#xa8;" horiz-adv-x="373" d="M81 502Q81 511 87 517T103 524Q112 524 118 518T125 502Q125 493 119 487T103 480Q94 480 88 486T81 502V502ZM247 502Q247 511 253 517T270 524Q278 524 285 518T292 502Q292 493 285 487T270 480Q260 480 254
486T247 502V502Z" />
<glyph unicode="&#xa9;" horiz-adv-x="794" d="M494 234Q476 222 454 215T407 208Q358 208 322 230T266 290T245 371Q245 418 267 455T327 514T408 536Q423 536 438 534T467 526T493 513L485 498Q468 509 449 514T409 519Q372 519 339 500T286 447T265 371Q265
330 283 298T334 246T408 226Q429 226 448 232T485 248L494 234ZM397 110Q342 110 295 129T212 183T156 266T136 369Q136 426 156 473T211 556T294 610T397 630Q452 630 499 611T582 556T638 474T658 369Q658 313 640 266T588 184T505 129T397 110ZM396 128Q463
128 518 159T606 245T639 368Q639 439 606 494T518 580T396 612Q330 612 275 581T188 494T155 368Q155 299 183 245T265 159T396 128Z" />
<glyph unicode="&#xaa;" horiz-adv-x="416" d="M189 414Q149 414 116 433T64 485T44 559Q44 606 64 638T116 688T189 705Q234 705 270 682T322 619L320 610L323 699H337V418H320V514L324 504Q314 478 294 458T247 426T189 414ZM191 430Q226 430 255 446T302 489T320
553V582Q311 627 275 658T191 689Q137 689 100 654T62 559Q62 523 79 494T126 448T191 430Z" />
<glyph unicode="&#xab;" horiz-adv-x="601" d="M113 239Q126 252 140 265T170 293T200 321T230 348T259 375T287 402V380Q270 363 253 346T217 310T182 274T147 239Q164 222 181 204T217 168T252 132T287 96V75L113 239ZM287 239Q301 252 315 265T344 293T374
321T404 348T433 375T462 402V380Q445 363 428 346T392 310T357 274T322 239Q339 222 356 204T392 168T427 132T462 96V75L287 239Z" />
<glyph unicode="&#xac;" horiz-adv-x="555" d="M98 245H458V146H438V225H98V245Z" />
<glyph unicode="&#xad;" horiz-adv-x="600" d="M53 202H237V183H53V202Z" />
<glyph unicode="&#xae;" horiz-adv-x="358" d="M179 420Q139 420 108 438T58 487T39 559Q39 599 57 630T107 680T179 698Q218 698 249 680T299 631T318 559Q318 519 300 488T250 438T179 420ZM178 436Q212 436 240 452T284 496T301 559Q301 594 285 622T240 666T178
682Q145 682 117 666T73 622T56 559Q56 524 72 496T117 452T178 436ZM128 645H176Q194 645 211 635T228 598Q228 574 215 561T172 548H145V481H128V645ZM171 563Q192 563 201 573T211 598Q211 616 199 622T175 629H147V563H171ZM195 553L235 481H217L177 553H195Z"
/>
<glyph unicode="&#xaf;" horiz-adv-x="397" d="M84 508H315V491H84V508Z" />
<glyph unicode="&#xb0;" horiz-adv-x="282" d="M59 560Q59 582 69 600T98 628T138 638Q160 638 177 628T205 600T216 560Q216 538 206 521T178 493T138 483Q116 483 98 493T70 520T59 560V560ZM138 499Q163 499 181 517T199 561Q199 586 181 604T138 622Q112 622
94 604T76 561Q76 535 94 517T138 499V499Z" />
<glyph unicode="&#xb1;" horiz-adv-x="525" d="M257 572H276V402H446V383H276V211H257V383H86V402H257V572ZM86 152H446V133H86V152Z" />
<glyph unicode="&#xb2;" horiz-adv-x="397" d="M105 656Q117 674 139 687T188 700Q232 700 258 676T285 602Q285 572 270 543T230 485T178 429T124 374L119 388H300V370H98V375Q129 404 159 433T212 491T250 547T265 600Q265 645 242 663T186 682Q159 682 143
672T115 645L105 656Z" />
<glyph unicode="&#xb3;" horiz-adv-x="412" d="M168 371Q136 371 114 383T78 411L87 424Q98 410 118 399T168 387Q209 387 233 415T257 483Q257 521 234 540T178 559Q153 559 140 555T113 545L111 548L223 693L231 682H87V699H248L142 561L126 559Q135 566 150
570T180 574Q206 576 228 565T263 533T276 482Q276 450 263 425T225 385T168 371Z" />
<glyph unicode="&#xb4;" horiz-adv-x="211" d="M161 613L69 480H50L139 613H161Z" />
<glyph unicode="&#xb5;" horiz-adv-x="487" d="M211 -8Q168 -8 140 12T100 68L114 73V-201H94V108V378H114V108Q115 67 140 40T215 10Q255 10 291 29T350 83T373 160V378H393V0H376L373 120L376 107Q368 76 343 50T283 8T211 -8Z" />
<glyph unicode="&#xb6;" horiz-adv-x="494" d="M201 423Q156 423 119 445T60 504T38 587Q38 632 60 669T119 729T201 751H383V0H364V732H220V0H201V423Z" />
<glyph unicode="&#xb7;" horiz-adv-x="164" d="M71 280Q71 290 78 296T94 303Q103 303 109 297T116 280Q116 271 110 265T94 258Q85 258 78 264T71 280V280Z" />
<glyph unicode="&#xb8;" horiz-adv-x="449" d="M143 -181Q155 -192 174 -199T220 -207Q261 -207 285 -192T309 -146Q309 -119 289 -101T227 -82Q210 -82 188 -86T154 -97L140 -84L213 5L229 -4L161 -88L146 -84Q157 -77 181 -71T228 -65Q277 -65 303 -86T330 -146Q330
-172 316 -189T277 -214T222 -223Q194 -223 171 -216T133 -196L143 -181Z" />
<glyph unicode="&#xb9;" horiz-adv-x="251" d="M78 651H143V347H123V633H78V651Z" />
<glyph unicode="&#xba;" horiz-adv-x="383" d="M44 554Q44 595 63 628T116 682T191 702Q232 702 265 682T319 629T339 554Q339 514 319 481T266 429T191 409Q150 409 117 428T64 479T44 554ZM62 554Q62 519 79 490T126 443T191 425Q226 425 255 442T302 489T320
554Q320 590 303 620T256 667T191 685Q154 685 125 667T79 618T62 554Z" />
<glyph unicode="&#xbb;" horiz-adv-x="601" d="M465 239Q451 252 437 265T407 293T377 321T347 348T318 375T290 402V380Q307 363 324 346T360 310T395 274T430 239Q413 222 396 204T360 168T325 132T290 96V75L465 239ZM290 239Q276 252 262 265T233 293T203
321T173 348T144 375T115 402V380Q132 363 149 346T185 310T220 274T255 239Q238 222 221 204T185 168T150 132T115 96V75L290 239Z" />
<glyph unicode="&#xbc;" horiz-adv-x="725" d="M541 664L135 0H114L520 664H541ZM79 651H144V347H124V633H79V651ZM667 124V108H448V118L622 314H630V0H611V290L616 282L469 118L464 124H667Z" />
<glyph unicode="&#xbd;" horiz-adv-x="786" d="M79 652H144V348H124V634H79V652ZM493 285Q505 303 527 316T576 329Q620 329 646 305T673 231Q673 201 658 172T618 114T566 58T512 3L507 17H688V-1H486V4Q517 33 547 62T600 120T638 176T653 229Q653 274 630 292T574
311Q547 311 531 301T503 274L493 285ZM554 665L148 0H127L533 665H554Z" />
<glyph unicode="&#xbe;" horiz-adv-x="695" d="M396 371Q364 371 342 383T306 411L315 424Q326 410 346 399T396 387Q437 387 461 415T485 483Q485 521 462 540T406 559Q381 559 368 555T341 545L339 548L451 693L459 682H315V699H476L370 561L354 559Q363 566
378 570T408 574Q434 576 456 565T491 533T504 482Q504 450 491 425T453 385T396 371ZM548 665L142 0H121L527 665H548ZM635 124V109H417L416 118L590 314H598V0H579V290L584 282L437 118L432 124H635Z" />
<glyph unicode="&#xbf;" horiz-adv-x="412" d="M245 374V294Q245 247 231 224T193 188T145 155Q106 126 81 92T56 2Q56 -49 80 -89T144 -152T233 -175Q272 -175 306 -160T366 -118T402 -54L420 -59Q410 -88 393 -112T350 -154T296 -183T233 -194Q178 -194 134
-168T63 -97T37 1Q37 37 49 67T82 122T133 168Q159 188 180 200T213 233T225 298V374H245ZM231 506Q241 506 248 499T256 481Q256 471 249 464T231 457Q222 457 215 464T208 481Q208 492 215 499T231 506Z" />
<glyph unicode="&#xc0;" horiz-adv-x="709" d="M63 0L354 734H356L647 0H625L349 701L362 704L83 0H63ZM184 281H527L529 263H182L184 281ZM260 884H282L371 751H352L260 884Z" />
<glyph unicode="&#xc1;" horiz-adv-x="709" d="M63 0L354 734H356L647 0H625L349 701L362 704L83 0H63ZM184 281H527L529 263H182L184 281ZM715 874L623 741H604L693 874H715Z" />
<glyph unicode="&#xc2;" horiz-adv-x="709" d="M63 0L354 734H356L647 0H625L349 701L362 704L83 0H63ZM184 281H527L529 263H182L184 281ZM469 768L350 905L363 906L243 768H222L355 920H356L490 768H469Z" />
<glyph unicode="&#xc3;" horiz-adv-x="709" d="M63 0L354 734H356L647 0H625L349 701L362 704L83 0H63ZM184 281H527L529 263H182L184 281ZM426 770Q398 770 381 784T349 816Q336 831 322 844T287 857Q276 857 263 849T240 821T228 763L212 765Q213 804 224 828T252
863T287 875Q315 875 332 860T363 828Q376 812 390 800T426 787Q447 787 463 806T483 881L499 879Q498 840 488 816T462 781T426 770Z" />
<glyph unicode="&#xc4;" horiz-adv-x="709" d="M63 0L354 734H356L647 0H625L349 701L362 704L83 0H63ZM184 281H527L529 263H182L184 281ZM249 786Q249 795 255 801T271 808Q280 808 286 802T293 786Q293 777 287 771T271 764Q262 764 256 770T249 786V786ZM415
786Q415 795 421 801T438 808Q446 808 453 802T460 786Q460 777 453 771T438 764Q428 764 422 770T415 786V786Z" />
<glyph unicode="&#xc5;" horiz-adv-x="709" d="M63 0L354 734H356L647 0H625L349 701L362 704L83 0H63ZM184 281H527L529 263H182L184 281ZM290 836Q290 864 308 882T355 901Q383 901 401 883T420 836Q420 808 402 790T355 772Q327 772 309 790T290 836ZM306 836Q306
817 320 803T355 788Q374 788 388 802T403 836Q403 856 389 870T355 885Q335 885 321 871T306 836Z" />
<glyph unicode="&#xc6;" horiz-adv-x="923" d="M463 702H830V682H483V363H791V344H483V20H844V0H463V702ZM476 694Q474 688 472 681T467 668L46 0H24L463 702L476 694ZM166 224H472V206H164L166 224Z" />
<glyph unicode="&#xc7;" horiz-adv-x="690" d="M616 43Q590 28 561 17T498 -1T429 -8Q349 -8 284 20T171 97T99 210T74 347Q74 423 101 489T178 604T292 682T431 710Q482 710 528 697T616 659L606 642Q568 665 524 678T431 691Q362 691 301 665T193 591T121 481T94
346Q94 279 117 218T185 111T290 38T429 11Q478 11 522 24T604 60L616 43ZM593 -181Q605 -192 624 -199T670 -207Q711 -207 735 -192T759 -146Q759 -119 739 -101T677 -82Q660 -82 638 -86T604 -97L590 -84L663 5L679 -4L611 -88L596 -84Q607 -77 631 -71T678 -65Q727
-65 753 -86T780 -146Q780 -172 766 -189T727 -214T672 -223Q644 -223 621 -216T583 -196L593 -181Z" />
<glyph unicode="&#xc8;" horiz-adv-x="631" d="M119 702H538V683H139V364H499V345H139V19H552V0H119V702ZM221 884H243L332 751H313L221 884Z" />
<glyph unicode="&#xc9;" horiz-adv-x="631" d="M119 702H538V683H139V364H499V345H139V19H552V0H119V702ZM676 874L584 741H565L654 874H676Z" />
<glyph unicode="&#xca;" horiz-adv-x="631" d="M119 702H538V683H139V364H499V345H139V19H552V0H119V702ZM431 767L312 904L325 905L205 767H184L317 919H318L452 767H431Z" />
<glyph unicode="&#xcb;" horiz-adv-x="631" d="M119 702H538V683H139V364H499V345H139V19H552V0H119V702ZM211 785Q211 794 217 800T233 807Q242 807 248 801T255 785Q255 776 249 770T233 763Q224 763 218 769T211 785V785ZM377 785Q377 794 383 800T400 807Q408
807 415 801T422 785Q422 776 415 770T400 763Q390 763 384 769T377 785V785Z" />
<glyph unicode="&#xcc;" horiz-adv-x="258" d="M119 702H139V0H119V702ZM34 884H56L145 751H126L34 884Z" />
<glyph unicode="&#xcd;" horiz-adv-x="258" d="M119 702H139V0H119V702ZM489 874L397 741H378L467 874H489Z" />
<glyph unicode="&#xce;" horiz-adv-x="258" d="M119 702H139V0H119V702ZM243 767L124 904L137 905L17 767H-4L129 919H130L264 767H243Z" />
<glyph unicode="&#xcf;" horiz-adv-x="258" d="M119 702H139V0H119V702ZM23 785Q23 794 29 800T45 807Q54 807 60 801T67 785Q67 776 61 770T45 763Q36 763 30 769T23 785V785ZM189 785Q189 794 195 800T212 807Q220 807 227 801T234 785Q234 776 227 770T212
763Q202 763 196 769T189 785V785Z" />
<glyph unicode="&#xd0;" horiz-adv-x="726" d="M119 0V702H280Q380 702 451 670T566 586T631 472T652 350Q652 270 625 206T550 95T441 25T313 0H119ZM139 19H304Q371 19 430 42T535 108T606 213T632 351Q632 408 613 466T551 574T440 652T276 682H139V19ZM267
360H499V341H267V360Z" />
<glyph unicode="&#xd1;" horiz-adv-x="813" d="M693 -13L133 666L138 676L139 0H119V713H120L685 27L675 28V702H694V-13H693ZM477 768Q449 768 432 782T400 814Q387 829 373 842T338 855Q327 855 314 847T291 819T279 761L263 763Q264 802 275 826T303 861T338
873Q366 873 383 858T414 826Q427 810 441 798T477 785Q498 785 514 804T534 879L550 877Q549 838 539 814T513 779T477 768Z" />
<glyph unicode="&#xd2;" horiz-adv-x="865" d="M74 350Q74 424 102 489T179 604T293 682T432 710Q506 710 571 682T685 605T763 490T792 350Q792 276 764 211T686 97T571 20T432 -8Q358 -8 293 18T179 93T102 206T74 350ZM94 349Q94 279 120 218T192 110T299 37T429
11Q500 11 562 37T671 109T745 217T772 350Q772 420 745 481T672 590T564 664T432 691Q360 691 299 664T191 588T120 479T94 349ZM338 883H360L449 750H430L338 883Z" />
<glyph unicode="&#xd3;" horiz-adv-x="865" d="M74 350Q74 424 102 489T179 604T293 682T432 710Q506 710 571 682T685 605T763 490T792 350Q792 276 764 211T686 97T571 20T432 -8Q358 -8 293 18T179 93T102 206T74 350ZM94 349Q94 279 120 218T192 110T299 37T429
11Q500 11 562 37T671 109T745 217T772 350Q772 420 745 481T672 590T564 664T432 691Q360 691 299 664T191 588T120 479T94 349ZM793 873L701 740H682L771 873H793Z" />
<glyph unicode="&#xd4;" horiz-adv-x="865" d="M74 350Q74 424 102 489T179 604T293 682T432 710Q506 710 571 682T685 605T763 490T792 350Q792 276 764 211T686 97T571 20T432 -8Q358 -8 293 18T179 93T102 206T74 350ZM94 349Q94 279 120 218T192 110T299 37T429
11Q500 11 562 37T671 109T745 217T772 350Q772 420 745 481T672 590T564 664T432 691Q360 691 299 664T191 588T120 479T94 349ZM547 767L428 904L441 905L321 767H300L433 919H434L568 767H547Z" />
<glyph unicode="&#xd5;" horiz-adv-x="865" d="M74 350Q74 424 102 489T179 604T293 682T432 710Q506 710 571 682T685 605T763 490T792 350Q792 276 764 211T686 97T571 20T432 -8Q358 -8 293 18T179 93T102 206T74 350ZM94 349Q94 279 120 218T192 110T299 37T429
11Q500 11 562 37T671 109T745 217T772 350Q772 420 745 481T672 590T564 664T432 691Q360 691 299 664T191 588T120 479T94 349ZM504 769Q476 769 459 783T427 815Q414 830 400 843T365 856Q354 856 341 848T318 820T306 762L290 764Q291 803 302 827T330 862T365
874Q393 874 410 859T441 827Q454 811 468 799T504 786Q525 786 541 805T561 880L577 878Q576 839 566 815T540 780T504 769Z" />
<glyph unicode="&#xd6;" horiz-adv-x="865" d="M74 350Q74 424 102 489T179 604T293 682T432 710Q506 710 571 682T685 605T763 490T792 350Q792 276 764 211T686 97T571 20T432 -8Q358 -8 293 18T179 93T102 206T74 350ZM94 349Q94 279 120 218T192 110T299 37T429
11Q500 11 562 37T671 109T745 217T772 350Q772 420 745 481T672 590T564 664T432 691Q360 691 299 664T191 588T120 479T94 349ZM327 785Q327 794 333 800T349 807Q358 807 364 801T371 785Q371 776 365 770T349 763Q340 763 334 769T327 785V785ZM493 785Q493
794 499 800T516 807Q524 807 531 801T538 785Q538 776 531 770T516 763Q506 763 500 769T493 785V785Z" />
<glyph unicode="&#xd7;" horiz-adv-x="501" d="M263 150Q293 180 323 210T384 270Q387 267 391 263T398 256Q368 225 338 196T278 136Q308 105 338 75T399 14L384 0Q354 30 324 60T263 121Q233 91 203 61T143 0Q139 3 136 7T129 14Q159 45 188 75T249 135L129
255L144 269L263 150Z" />
<glyph unicode="&#xd8;" horiz-adv-x="856" d="M724 707L132 -1L120 10L713 718L724 707ZM74 350Q74 424 102 489T179 604T293 682T432 710Q506 710 571 682T685 605T763 490T792 350Q792 276 764 211T686 97T571 20T432 -8Q358 -8 293 18T179 93T102 206T74 350ZM94
349Q94 279 120 218T192 110T299 37T429 11Q500 11 562 37T671 109T745 217T772 350Q772 420 745 481T672 590T564 664T432 691Q360 691 299 664T191 588T120 479T94 349Z" />
<glyph unicode="&#xd9;" horiz-adv-x="693" d="M138 230Q138 160 165 111T239 37T346 11Q406 11 453 36T528 111T555 230V702H575V228Q575 151 545 99T463 19T346 -8V-8Q281 -8 230 19T148 98T118 228V702H138V230ZM251 884H273L362 751H343L251 884Z" />
<glyph unicode="&#xda;" horiz-adv-x="693" d="M138 230Q138 160 165 111T239 37T346 11Q406 11 453 36T528 111T555 230V702H575V228Q575 151 545 99T463 19T346 -8V-8Q281 -8 230 19T148 98T118 228V702H138V230ZM706 874L614 741H595L684 874H706Z" />
<glyph unicode="&#xdb;" horiz-adv-x="693" d="M138 230Q138 160 165 111T239 37T346 11Q406 11 453 36T528 111T555 230V702H575V228Q575 151 545 99T463 19T346 -8V-8Q281 -8 230 19T148 98T118 228V702H138V230ZM461 767L342 904L355 905L235 767H214L347 919H348L482
767H461Z" />
<glyph unicode="&#xdc;" horiz-adv-x="693" d="M138 230Q138 160 165 111T239 37T346 11Q406 11 453 36T528 111T555 230V702H575V228Q575 151 545 99T463 19T346 -8V-8Q281 -8 230 19T148 98T118 228V702H138V230ZM241 785Q241 794 247 800T263 807Q272 807 278
801T285 785Q285 776 279 770T263 763Q254 763 248 769T241 785V785ZM407 785Q407 794 413 800T430 807Q438 807 445 801T452 785Q452 776 445 770T430 763Q420 763 414 769T407 785V785Z" />
<glyph unicode="&#xdd;" horiz-adv-x="643" d="M312 261L49 702H73L327 277L318 276L571 702H594L332 261V0H312V261ZM683 873L591 740H572L661 873H683Z" />
<glyph unicode="&#xde;" horiz-adv-x="530" d="M264 539Q294 539 329 529T396 497T446 440T466 352Q466 314 454 279T415 215T348 171T251 154H139V0H119V701H139V539H264ZM253 174Q310 174 347 191T406 237T437 296T446 354Q446 403 421 440T353 498T254 519H139V174H253Z"
/>
<glyph unicode="&#xdf;" horiz-adv-x="562" d="M115 428Q115 501 135 552T195 630T290 659Q343 658 377 638T428 586T445 520Q445 471 420 438T354 389Q398 379 432 351T487 283T507 195Q507 138 480 92T406 19T303 -8Q273 -8 246 0T196 22L205 37Q225 23 249
16T300 9Q352 9 394 34T462 102T488 196Q488 246 464 287T399 354T306 379H302V398Q353 398 389 429T425 514Q425 546 411 575T367 622T292 640Q214 640 174 583T134 430V0H115V368H50V387H115V428Z" />
<glyph unicode="&#xe0;" horiz-adv-x="542" d="M249 -6Q195 -6 151 20T81 90T54 189Q54 252 81 296T152 363T252 386Q311 386 359 353T430 266L428 253L433 378H448V0H429V129L432 115Q422 89 404 67T362 29T310 3T249 -6ZM251 11Q300 11 340 33T404 93T429 181V222Q421
263 396 296T333 349T251 369Q202 369 162 347T98 285T74 190Q74 140 98 100T162 35T251 11ZM176 614H198L287 481H268L176 614Z" />
<glyph unicode="&#xe1;" horiz-adv-x="542" d="M249 -6Q195 -6 151 20T81 90T54 189Q54 252 81 296T152 363T252 386Q311 386 359 353T430 266L428 253L433 378H448V0H429V129L432 115Q422 89 404 67T362 29T310 3T249 -6ZM251 11Q300 11 340 33T404 93T429 181V222Q421
263 396 296T333 349T251 369Q202 369 162 347T98 285T74 190Q74 140 98 100T162 35T251 11ZM603 595L511 462H492L581 595H603Z" />
<glyph unicode="&#xe2;" horiz-adv-x="542" d="M249 -6Q195 -6 151 20T81 90T54 189Q54 252 81 296T152 363T252 386Q311 386 359 353T430 266L428 253L433 378H448V0H429V129L432 115Q422 89 404 67T362 29T310 3T249 -6ZM251 11Q300 11 340 33T404 93T429 181V222Q421
263 396 296T333 349T251 369Q202 369 162 347T98 285T74 190Q74 140 98 100T162 35T251 11ZM387 736L268 873L281 874L161 736H140L273 888H274L408 736H387Z" />
<glyph unicode="&#xe3;" horiz-adv-x="542" d="M249 -6Q195 -6 151 20T81 90T54 189Q54 252 81 296T152 363T252 386Q311 386 359 353T430 266L428 253L433 378H448V0H429V129L432 115Q422 89 404 67T362 29T310 3T249 -6ZM251 11Q300 11 340 33T404 93T429 181V222Q421
263 396 296T333 349T251 369Q202 369 162 347T98 285T74 190Q74 140 98 100T162 35T251 11ZM343 449Q316 449 299 463T267 495Q253 510 239 523T205 536Q193 536 180 528T157 500T145 442L129 444Q130 483 141 507T169 542T204 554Q232 554 249 539T280 507Q293
491 308 479T344 467Q364 467 380 485T400 560L416 559Q415 520 405 496T379 460T343 449Z" />
<glyph unicode="&#xe4;" horiz-adv-x="542" d="M249 -6Q195 -6 151 20T81 90T54 189Q54 252 81 296T152 363T252 386Q311 386 359 353T430 266L428 253L433 378H448V0H429V129L432 115Q422 89 404 67T362 29T310 3T249 -6ZM251 11Q300 11 340 33T404 93T429 181V222Q421
263 396 296T333 349T251 369Q202 369 162 347T98 285T74 190Q74 140 98 100T162 35T251 11ZM167 503Q167 512 173 518T189 525Q198 525 204 519T211 503Q211 494 205 488T189 481Q180 481 174 487T167 503V503ZM333 503Q333 512 339 518T356 525Q364 525 371 519T378
503Q378 494 371 488T356 481Q346 481 340 487T333 503V503Z" />
<glyph unicode="&#xe5;" horiz-adv-x="542" d="M249 -6Q195 -6 151 20T81 90T54 189Q54 252 81 296T152 363T252 386Q311 386 359 353T430 266L428 253L433 378H448V0H429V129L432 115Q422 89 404 67T362 29T310 3T249 -6ZM251 11Q300 11 340 33T404 93T429 181V222Q421
263 396 296T333 349T251 369Q202 369 162 347T98 285T74 190Q74 140 98 100T162 35T251 11ZM207 503Q207 531 225 549T272 568Q300 568 318 550T337 503Q337 475 319 457T272 439Q244 439 226 457T207 503ZM223 503Q223 484 237 470T272 455Q291 455 305 469T320
503Q320 523 306 537T272 552Q252 552 238 538T223 503Z" />
<glyph unicode="&#xe6;" horiz-adv-x="759" d="M202 -11Q150 -11 118 5T70 47T54 99Q54 138 73 164T123 203T188 216Q241 216 288 191T363 121L357 109Q323 151 281 174T190 198Q165 198 139 188T94 157T76 102Q76 63 106 36T204 8Q223 8 250 12T303 26T346 56V183L364
159L365 50Q344 23 311 10T248 -7T202 -11ZM347 184V263Q347 306 333 328T294 358T241 366Q202 366 166 352T91 299L79 315Q109 346 149 365T242 385Q289 385 316 371T355 331T367 269V244L347 184ZM543 -6Q488 -6 444 20T373 90T347 190Q347 244 373 289T443 360T543
387Q606 387 649 351T715 259L372 120L366 137L699 271L693 261Q672 305 634 337T543 369Q493 369 453 345T390 280T366 190Q366 144 388 103T450 37T543 11Q578 11 609 24T665 59L678 45Q651 22 617 8T543 -6Z" />
<glyph unicode="&#xe7;" horiz-adv-x="420" d="M375 37Q349 17 318 6T251 -6Q196 -6 152 20T81 90T54 189Q54 244 80 288T151 359T250 386Q286 386 318 375T375 342L364 328Q341 346 312 357T251 369Q201 369 161 345T98 280T74 189Q74 140 97 100T161 35T251
11Q283 11 311 21T363 50L375 37ZM402 -180Q414 -191 433 -198T479 -206Q520 -206 544 -191T568 -145Q568 -118 548 -100T486 -81Q469 -81 447 -85T413 -96L399 -83L472 6L488 -3L420 -87L405 -83Q416 -76 440 -70T487 -64Q536 -64 562 -85T589 -145Q589 -171 575
-188T536 -213T481 -222Q453 -222 430 -215T392 -195L402 -180Z" />
<glyph unicode="&#xe8;" horiz-adv-x="467" d="M251 -6Q196 -6 152 20T81 90T54 190Q54 244 80 289T151 360T251 387Q314 387 357 351T423 259L80 120L74 137L406 271L401 261Q380 305 342 337T250 369Q201 369 161 345T98 280T74 190Q74 144 96 103T157 37T251
11Q286 11 317 24T373 59L386 45Q359 22 325 8T251 -6ZM138 614H160L249 481H230L138 614Z" />
<glyph unicode="&#xe9;" horiz-adv-x="467" d="M251 -6Q196 -6 152 20T81 90T54 190Q54 244 80 289T151 360T251 387Q314 387 357 351T423 259L80 120L74 137L406 271L401 261Q380 305 342 337T250 369Q201 369 161 345T98 280T74 190Q74 144 96 103T157 37T251
11Q286 11 317 24T373 59L386 45Q359 22 325 8T251 -6ZM565 595L473 462H454L543 595H565Z" />
<glyph unicode="&#xea;" horiz-adv-x="467" d="M251 -6Q196 -6 152 20T81 90T54 190Q54 244 80 289T151 360T251 387Q314 387 357 351T423 259L80 120L74 137L406 271L401 261Q380 305 342 337T250 369Q201 369 161 345T98 280T74 190Q74 144 96 103T157 37T251
11Q286 11 317 24T373 59L386 45Q359 22 325 8T251 -6ZM349 736L230 873L243 874L123 736H102L235 888H236L370 736H349Z" />
<glyph unicode="&#xeb;" horiz-adv-x="467" d="M251 -6Q196 -6 152 20T81 90T54 190Q54 244 80 289T151 360T251 387Q314 387 357 351T423 259L80 120L74 137L406 271L401 261Q380 305 342 337T250 369Q201 369 161 345T98 280T74 190Q74 144 96 103T157 37T251
11Q286 11 317 24T373 59L386 45Q359 22 325 8T251 -6ZM129 503Q129 512 135 518T151 525Q160 525 166 519T173 503Q173 494 167 488T151 481Q142 481 136 487T129 503V503ZM295 503Q295 512 301 518T318 525Q326 525 333 519T340 503Q340 494 333 488T318 481Q308
481 302 487T295 503V503Z" />
<glyph unicode="&#xec;" horiz-adv-x="208" d="M94 378H114V0H94V378ZM7 613H29L118 480H99L7 613Z" />
<glyph unicode="&#xed;" horiz-adv-x="208" d="M94 378H114V0H94V378ZM434 850L342 717H323L412 850H434Z" />
<glyph unicode="&#xee;" horiz-adv-x="208" d="M94 378H114V0H94V378ZM474 735L355 872L368 873L248 735H227L360 887H361L495 735H474Z" />
<glyph unicode="&#xef;" horiz-adv-x="208" d="M94 378H114V0H94V378ZM254 502Q254 511 260 517T276 524Q285 524 291 518T298 502Q298 493 292 487T276 480Q267 480 261 486T254 502V502ZM420 502Q420 511 426 517T443 524Q451 524 458 518T465 502Q465 493 458
487T443 480Q433 480 427 486T420 502V502Z" />
<glyph unicode="&#xf0;" horiz-adv-x="503" d="M250 -6Q196 -6 152 19T81 89T54 190Q54 244 80 289T151 360T249 387Q281 387 309 378T360 351T400 313T428 270L425 252Q418 310 390 375T321 506T231 626T133 716L143 729Q199 688 253 627T352 492T422 342T449
195Q449 153 433 117T390 53T326 10T250 -6ZM251 11Q300 11 340 35T404 99T428 190Q428 239 404 279T340 344T251 369Q200 369 160 343T97 276T74 190Q74 140 97 100T161 35T251 11ZM318 686L149 575L139 587L308 697L318 686Z" />
<glyph unicode="&#xf1;" horiz-adv-x="487" d="M109 378L113 256L110 270Q126 324 172 354T276 385Q329 385 360 354T393 273V0H373V271Q372 311 347 338T274 368Q232 368 196 350T137 298T114 219V0H94V378H109ZM314 449Q287 449 270 463T238 495Q224 510 210
523T176 536Q164 536 151 528T128 500T116 442L100 444Q101 483 112 507T140 542T175 554Q203 554 220 539T251 507Q264 491 279 479T315 467Q335 467 351 485T371 560L387 559Q386 520 376 496T350 460T314 449Z" />
<glyph unicode="&#xf2;" horiz-adv-x="503" d="M54 190Q54 244 80 289T151 360T251 387Q306 387 351 361T422 289T449 190Q449 135 423 91T351 20T251 -6Q196 -6 152 19T81 89T54 190ZM74 190Q74 140 97 100T161 35T251 11Q300 11 340 35T404 99T428 190Q428 239
404 279T340 344T251 369Q200 369 160 343T97 276T74 190ZM155 614H177L266 481H247L155 614Z" />
<glyph unicode="&#xf3;" horiz-adv-x="503" d="M54 190Q54 244 80 289T151 360T251 387Q306 387 351 361T422 289T449 190Q449 135 423 91T351 20T251 -6Q196 -6 152 19T81 89T54 190ZM74 190Q74 140 97 100T161 35T251 11Q300 11 340 35T404 99T428 190Q428 239
404 279T340 344T251 369Q200 369 160 343T97 276T74 190ZM582 595L490 462H471L560 595H582Z" />
<glyph unicode="&#xf4;" horiz-adv-x="503" d="M54 190Q54 244 80 289T151 360T251 387Q306 387 351 361T422 289T449 190Q449 135 423 91T351 20T251 -6Q196 -6 152 19T81 89T54 190ZM74 190Q74 140 97 100T161 35T251 11Q300 11 340 35T404 99T428 190Q428 239
404 279T340 344T251 369Q200 369 160 343T97 276T74 190ZM366 736L247 873L260 874L140 736H119L252 888H253L387 736H366Z" />
<glyph unicode="&#xf5;" horiz-adv-x="503" d="M54 190Q54 244 80 289T151 360T251 387Q306 387 351 361T422 289T449 190Q449 135 423 91T351 20T251 -6Q196 -6 152 19T81 89T54 190ZM74 190Q74 140 97 100T161 35T251 11Q300 11 340 35T404 99T428 190Q428 239
404 279T340 344T251 369Q200 369 160 343T97 276T74 190ZM323 449Q296 449 279 463T247 495Q233 510 219 523T185 536Q173 536 160 528T137 500T125 442L109 444Q110 483 121 507T149 542T184 554Q212 554 229 539T260 507Q273 491 288 479T324 467Q344 467 360
485T380 560L396 559Q395 520 385 496T359 460T323 449Z" />
<glyph unicode="&#xf6;" horiz-adv-x="503" d="M54 190Q54 244 80 289T151 360T251 387Q306 387 351 361T422 289T449 190Q449 135 423 91T351 20T251 -6Q196 -6 152 19T81 89T54 190ZM74 190Q74 140 97 100T161 35T251 11Q300 11 340 35T404 99T428 190Q428 239
404 279T340 344T251 369Q200 369 160 343T97 276T74 190ZM146 503Q146 512 152 518T168 525Q177 525 183 519T190 503Q190 494 184 488T168 481Q159 481 153 487T146 503V503ZM312 503Q312 512 318 518T335 525Q343 525 350 519T357 503Q357 494 350 488T335 481Q325
481 319 487T312 503V503Z" />
<glyph unicode="&#xf7;" horiz-adv-x="501" d="M229 345Q229 354 235 360T251 367Q260 367 267 361T274 345Q274 336 267 330T251 323Q242 323 236 329T229 345V345ZM229 92Q229 101 235 107T251 114Q260 114 267 108T274 92Q274 83 267 77T251 70Q242 70 236
76T229 92V92ZM68 229H428V210H68V229Z" />
<glyph unicode="&#xf8;" horiz-adv-x="481" d="M403 369L92 -2L81 11L392 380L403 369ZM54 190Q54 244 80 289T151 360T251 387Q306 387 351 361T422 289T449 190Q449 135 423 91T351 20T251 -6Q196 -6 152 19T81 89T54 190ZM74 190Q74 140 97 100T161 35T251
11Q300 11 340 35T404 99T428 190Q428 239 404 279T340 344T251 369Q200 369 160 343T97 276T74 190Z" />
<glyph unicode="&#xf9;" horiz-adv-x="487" d="M211 -8Q158 -8 127 23T94 105V378H114V108Q115 67 140 40T215 10Q255 10 291 29T350 83T373 160V378H393V0H376L374 116L377 107Q368 75 343 49T283 8T211 -8ZM147 614H169L258 481H239L147 614Z" />
<glyph unicode="&#xfa;" horiz-adv-x="487" d="M211 -8Q158 -8 127 23T94 105V378H114V108Q115 67 140 40T215 10Q255 10 291 29T350 83T373 160V378H393V0H376L374 116L377 107Q368 75 343 49T283 8T211 -8ZM574 595L482 462H463L552 595H574Z" />
<glyph unicode="&#xfb;" horiz-adv-x="487" d="M211 -8Q158 -8 127 23T94 105V378H114V108Q115 67 140 40T215 10Q255 10 291 29T350 83T373 160V378H393V0H376L374 116L377 107Q368 75 343 49T283 8T211 -8ZM358 736L239 873L252 874L132 736H111L244 888H245L379
736H358Z" />
<glyph unicode="&#xfc;" horiz-adv-x="487" d="M211 -8Q158 -8 127 23T94 105V378H114V108Q115 67 140 40T215 10Q255 10 291 29T350 83T373 160V378H393V0H376L374 116L377 107Q368 75 343 49T283 8T211 -8ZM138 503Q138 512 144 518T160 525Q169 525 175 519T182
503Q182 494 176 488T160 481Q151 481 145 487T138 503V503ZM304 503Q304 512 310 518T327 525Q335 525 342 519T349 503Q349 494 342 488T327 481Q317 481 311 487T304 503V503Z" />
<glyph unicode="&#xfd;" horiz-adv-x="431" d="M130 -181L375 378H397L154 -181H130ZM210 -5L34 378H55L226 7L210 -5ZM546 594L454 461H435L524 594H546Z" />
<glyph unicode="&#xfe;" horiz-adv-x="520" d="M283 -6Q242 -6 204 10T139 56T102 121L104 142V-181H85V752H104V244L99 253Q110 292 138 322T205 369T284 386Q339 386 383 360T453 289T479 189Q479 133 453 89T383 20T283 -6ZM282 12Q331 12 371 36T436 100T460
189Q460 242 436 282T371 345T282 368Q233 368 193 344T129 281T104 192V176Q107 130 131 93T195 34T282 12Z" />
<glyph unicode="&#xff;" horiz-adv-x="431" d="M130 -181L375 378H397L154 -181H130ZM210 -5L34 378H55L226 7L210 -5ZM110 502Q110 511 116 517T132 524Q141 524 147 518T154 502Q154 493 148 487T132 480Q123 480 117 486T110 502V502ZM276 502Q276 511 282
517T299 524Q307 524 314 518T321 502Q321 493 314 487T299 480Q289 480 283 486T276 502V502Z" />
<glyph unicode="&#x2013;" horiz-adv-x="510" d="M100 197H401V178H100V197Z" />
<glyph unicode="&#x2014;" horiz-adv-x="701" d="M99 197H602V178H99V197Z" />
<glyph unicode="&#x2018;" horiz-adv-x="165" d="M106 713L115 694Q93 665 84 637T81 579L58 572Q53 599 57 624T73 672T106 713Z" />
<glyph unicode="&#x2019;" horiz-adv-x="166" d="M66 572L57 590Q78 610 87 640T91 705L114 712Q119 685 115 660T99 612T66 572V572Z" />
<glyph unicode="&#x201a;" horiz-adv-x="166" d="M66 -104L57 -86Q78 -66 87 -36T91 29L114 36Q119 9 115 -16T99 -64T66 -104V-104Z" />
<glyph unicode="&#x201c;" horiz-adv-x="232" d="M220 713L229 694Q207 665 198 637T195 579L172 572Q167 599 171 624T187 672T220 713ZM119 713L128 694Q106 665 97 637T94 579L71 572Q66 599 70 624T86 672T119 713Z" />
<glyph unicode="&#x201d;" horiz-adv-x="220" d="M66 572L57 590Q78 610 87 640T91 705L114 712Q119 685 115 660T99 612T66 572V572ZM145 572L136 590Q157 610 166 640T170 705L193 712Q198 685 194 660T178 612T145 572V572Z" />
<glyph unicode="&#x201e;" horiz-adv-x="252" d="M66 -118L57 -100Q78 -80 87 -50T91 15L114 22Q119 -5 115 -30T99 -78T66 -118V-118ZM145 -118L136 -100Q157 -80 166 -50T170 15L193 22Q198 -5 194 -30T178 -78T145 -118V-118Z" />
<glyph unicode="&#x2022;" horiz-adv-x="479" d="M170 300Q170 320 179 336T204 361T239 371Q259 371 275 362T300 336T310 300Q310 281 301 266T275 241T239 231Q220 231 205 240T180 265T170 300V300Z" />
<glyph unicode="&#x2039;" horiz-adv-x="391" d="M113 239Q126 252 140 265T170 293T200 321T230 348T259 375T287 402V380Q270 363 253 346T217 310T182 274T147 239Q164 222 181 204T217 168T252 132T287 96V75L113 239Z" />
<glyph unicode="&#x203a;" horiz-adv-x="390" d="M290 239Q276 252 262 265T233 293T203 321T173 348T144 375T115 402V380Q132 363 149 346T185 310T220 274T255 239Q238 222 221 204T185 168T150 132T115 96V75L290 239Z" />
</font>
</defs>
</svg>
