<?xml version="1.0" standalone="no"?>
<!DOCTYPE svg PUBLIC "-//W3C//DTD SVG 1.1//EN" "http://www.w3.org/Graphics/SVG/1.1/DTD/svg11.dtd">
<svg xmlns="http://www.w3.org/2000/svg">
<defs >
<font id="JosefinSans" horiz-adv-x="547" ><font-face
    font-family="Josefin Sans Thin ExtraLight"
    units-per-em="1000"
    panose-1="0 0 0 0 0 0 0 0 0 0"
    ascent="750"
    descent="-250"
    alphabetic="0" />
<glyph unicode=" " horiz-adv-x="304" />
<glyph unicode="!" horiz-adv-x="201" d="M84 753H115V172H84V753ZM101 27Q88 27 79 35T69 58Q69 70 78 79T101 88Q114 88 123 79T132 58Q132 44 123 36T101 27Z" />
<glyph unicode="&quot;" horiz-adv-x="304" d="M98 723Q97 660 96 598T94 473H63V723H98ZM231 723Q230 659 229 598T227 473H197V723H231Z" />
<glyph unicode="#" horiz-adv-x="573" d="M223 645Q216 592 210 538T197 430H350Q356 484 362 538T376 645H408Q401 592 395 538T381 430H509Q508 423 508 415T507 399H377Q373 361 369 323T360 247H487Q486 240 485 232T484 216H355Q349 162 343 108T331 0H299Q305
54 311 108T323 216H171Q164 162 158 108T146 0H114Q120 54 126 108T139 216H28Q29 224 30 232T31 247H143Q148 285 152 323T161 399H51Q52 407 53 415T54 430H165Q171 484 178 538T191 645H223ZM193 399Q188 361 184 323T175 247H328Q333 285 337 323T345 399H193Z"
/>
<glyph unicode="$" horiz-adv-x="567" d="M282 -68V376V390V771H308V388V372V-68H282ZM458 641Q428 654 383 667T292 680Q219 680 175 643T130 550Q130 508 155 481T219 434T305 398Q340 385 375 369T438 330T483 274T500 191Q500 131 472 86T395 17T283 -8Q228
-8 185 5T110 36T63 64L80 93Q101 78 133 62T202 34T279 23Q325 23 367 41T437 96T465 190Q465 244 439 277T371 332T284 370Q249 382 216 396T155 431T112 479T95 546Q95 595 120 631T189 689T288 710Q332 710 383 698T471 668L458 641Z" />
<glyph unicode="%" horiz-adv-x="741" d="M216 232Q182 232 156 249T114 300T98 379Q98 424 113 457T155 507T216 525Q250 525 276 508T318 457T334 379Q334 332 319 299T277 249T216 232ZM130 378Q130 320 154 289T216 258Q253 258 278 289T303 378Q303 434 278
466T216 498Q179 498 155 468T130 378ZM537 -1Q503 -1 477 16T435 67T420 146Q420 192 435 224T476 274T537 292Q571 292 597 275T639 225T655 146Q655 100 640 67T597 16T537 -1ZM450 145Q450 88 475 57T537 25Q574 25 599 56T625 145Q625 202 600 233T537 265Q500
265 475 236T450 145ZM556 527L229 -1L193 0L521 527H556Z" />
<glyph unicode="&amp;" horiz-adv-x="707" d="M618 0Q616 0 610 0T596 0T583 0T577 0L201 487Q193 501 185 517T171 553T165 596Q165 641 186 676T244 731T327 751Q371 751 408 735T471 699L455 676Q425 696 394 708T331 720Q275 720 238 686T201 597Q201 573
208 552T223 517T231 503L618 0ZM301 365Q268 364 234 352T172 316T126 261T109 190Q109 141 135 104T206 45T303 24Q347 24 386 38T453 77T495 129L517 104Q491 57 433 25T300 -7Q233 -7 182 19T101 91T71 190Q71 234 90 270T141 334T213 377T298 394L301 365ZM594
394H629L520 109L495 131L594 394Z" />
<glyph unicode="&apos;" horiz-adv-x="151" d="M96 723Q95 659 94 598T92 473H61V723H96Z" />
<glyph unicode="(" horiz-adv-x="397" d="M136 293Q136 393 159 480T221 636T301 749L322 721Q283 678 249 614T193 468T171 292Q171 198 192 117T248 -28T322 -136L301 -164Q259 -119 221 -51T160 105T136 293V293Z" />
<glyph unicode=")" horiz-adv-x="401" d="M287 293Q287 193 264 106T202 -51T122 -164L101 -136Q140 -92 174 -28T231 117T253 293Q253 387 231 468T175 613T101 721L122 749Q164 705 202 636T263 480T287 293V293Z" />
<glyph unicode="*" horiz-adv-x="335" d="M153 552Q128 537 103 523T51 493Q48 499 44 505T36 518Q63 533 88 547T140 576Q114 591 89 606T37 637Q39 642 42 647T49 658Q75 643 101 628T153 598V720H182Q181 690 181 660T180 598Q207 613 233 628T286 657Q288
652 291 647T298 636Q272 621 246 606T193 575V575Q219 560 245 545T297 515Q294 510 290 504T282 491Q257 506 232 521T180 552Q179 523 179 494T178 434H153V552Z" />
<glyph unicode="+" horiz-adv-x="545" d="M251 412H283V248H447V217H283V51H251V217H87V248H251V412Z" />
<glyph unicode="," horiz-adv-x="193" d="M138 87Q116 35 95 -16T52 -121H22Q42 -68 61 -17T99 87H138Z" />
<glyph unicode="-" horiz-adv-x="301" d="M53 212H238V181H53V212Z" />
<glyph unicode="." horiz-adv-x="175" d="M62 28Q62 40 70 48T90 57Q101 57 109 49T118 28Q118 16 110 8T90 0Q79 0 71 8T62 28V28Z" />
<glyph unicode="/" horiz-adv-x="337" d="M327 739Q257 549 188 360T49 -19H17Q87 170 156 359T296 739H327Z" />
<glyph unicode="0" horiz-adv-x="618" d="M309 -5Q243 -5 192 21T107 93T54 200T36 327Q36 395 53 454T106 560T192 631T309 657Q375 657 426 631T511 559T564 453T582 327Q582 260 564 200T512 94T426 21T309 -5ZM309 28Q377 27 430 63T515 166T547 327Q546 418
515 485T431 588T309 624Q241 625 188 589T103 485T71 326Q72 234 103 167T187 63T309 28Z" />
<glyph unicode="1" horiz-adv-x="312" d="M57 652H196V0H161V618H57V652Z" />
<glyph unicode="2" horiz-adv-x="502" d="M53 0Q117 62 176 122T283 241T358 353T386 460Q386 507 372 539T336 590T287 618T235 627Q190 627 160 612T113 571T89 519T82 467Q82 432 92 404T121 355L100 336Q84 352 72 372T54 416T47 466Q47 520 69 564T134 634T239
660Q294 660 335 634T399 563T422 462Q422 406 394 351T321 240T224 131T122 25L110 33H462V0H53Z" />
<glyph unicode="3" horiz-adv-x="519" d="M412 652L199 375L172 382Q190 392 211 397T257 402Q296 404 331 394T393 360T436 300T451 216Q451 149 422 99T341 20T225 -8Q179 -8 139 10T70 59L88 87Q111 60 147 43T224 25Q280 25 323 49T391 117T416 218Q416 291
370 333T248 375Q221 375 196 369T152 353L148 356L358 627L368 619H87V652H412Z" />
<glyph unicode="4" horiz-adv-x="512" d="M19 177V178L393 660H394V206H488V177H394V0H359V177H19ZM364 575L74 202L64 206H359V595L364 575Z" />
<glyph unicode="5" horiz-adv-x="535" d="M250 -8Q206 -8 168 8T100 51L121 75Q144 51 177 38T246 24Q298 24 338 48T400 112T423 199Q423 248 403 287T345 350T253 374Q216 374 186 363T133 334H132V652H425V619H163V372L156 381Q176 392 205 398T261 404Q322
404 366 377T434 303T458 200Q458 143 432 96T358 20T250 -8Z" />
<glyph unicode="6" horiz-adv-x="525" d="M259 -8Q200 -8 152 20T76 97T47 208Q47 281 76 344T154 460T259 559T372 645L395 618Q311 565 251 511T153 405T102 303L93 306Q121 353 166 377T267 402Q322 402 368 375T441 301T469 198Q469 140 441 93T364 19T259
-8ZM257 23Q306 23 346 46T410 109T434 198Q434 247 410 286T346 348T257 371Q209 371 169 350T105 292T81 206V197Q81 149 105 110T169 47T257 23Z" />
<glyph unicode="7" horiz-adv-x="476" d="M441 652L156 0H116L395 629L411 619H33V652H441Z" />
<glyph unicode="8" horiz-adv-x="511" d="M45 198Q45 246 64 285T116 352T190 391Q151 406 126 438T101 512Q101 555 119 588T172 640T252 660Q298 660 332 641T384 588T403 512Q403 471 379 439T317 391Q358 380 392 353T446 286T467 198Q467 142 438 95T361
20T254 -8Q195 -8 148 20T73 95T45 198V198ZM79 199Q79 152 102 112T165 47T253 22Q302 22 343 46T408 111T432 199Q432 248 408 287T344 350T254 374Q206 374 166 350T103 287T79 199V199ZM134 509Q134 464 169 434T254 403Q303 403 336 433T369 509Q369 564 336
597T254 630Q204 630 169 597T134 509V509Z" />
<glyph unicode="9" horiz-adv-x="527" d="M249 226Q194 226 148 254T75 329T47 434Q47 494 75 541T152 616T258 644Q317 644 365 618T441 545T469 432Q469 358 439 295T360 178T253 78T139 -9L115 19Q202 74 263 128T361 230T410 317L428 321Q394 273 353 250T249
226ZM259 258Q338 258 386 303T435 428V442Q432 493 408 531T346 590T259 612Q211 612 171 589T106 525T82 434Q82 384 106 344T170 281T259 258Z" />
<glyph unicode=":" horiz-adv-x="176" d="M57 284Q57 295 65 303T85 312Q96 312 104 304T113 284Q113 271 105 264T85 256Q74 256 66 263T57 284V284ZM57 28Q57 40 65 48T85 57Q96 57 104 49T113 28Q113 16 105 8T85 0Q74 0 66 8T57 28V28Z" />
<glyph unicode=";" horiz-adv-x="202" d="M82 279Q82 291 90 299T110 307Q122 307 130 299T138 279Q138 267 130 259T111 251Q99 251 91 259T82 279V279ZM122 87Q100 35 79 -16T36 -121H6Q26 -68 45 -17T83 87H122Z" />
<glyph unicode="&lt;" horiz-adv-x="661" d="M541 455L166 239L541 22V-15L102 239L541 492V455Z" />
<glyph unicode="=" horiz-adv-x="711" d="M101 366H608V336H101V366ZM101 172H608V141H101V172Z" />
<glyph unicode="&gt;" horiz-adv-x="635" d="M110 22L485 239L110 455V492L549 239L110 -15V-15V22Z" />
<glyph unicode="?" horiz-adv-x="454" d="M198 170V246Q198 293 212 317T248 356T296 390Q333 418 357 451T382 539Q382 586 360 623T301 681T218 703Q180 703 148 688T92 646T57 585L27 596Q37 623 54 647T96 691T152 723T220 735Q276 735 320 710T391 640T417
541Q417 503 405 472T371 417T321 370Q296 351 276 338T244 303T232 238V170H198ZM218 27Q205 27 196 35T186 58Q186 70 195 79T218 88Q231 88 239 79T248 58Q248 44 240 36T218 27Z" />
<glyph unicode="@" horiz-adv-x="983" d="M408 -210Q326 -210 260 -187T148 -119T77 -9T52 139Q52 192 70 254T126 377T224 488T370 569T568 600Q648 600 714 575T829 504T904 398T930 266Q930 213 914 163T868 75T801 14T718 -9Q681 -9 659 8T629 59T632 137L639
118Q621 84 591 56T523 10T445 -7Q391 -7 349 15T285 78T263 171Q263 231 292 282T371 364T483 395Q527 395 561 380T618 340T651 280L671 385H700L662 109Q660 88 663 68T680 35T723 21Q757 21 788 41T844 96T882 175T896 266Q896 352 854 421T737 530T563 571Q458
571 379 542T243 463T152 357T101 243T85 142Q85 65 107 5T171 -97T274 -160T413 -181Q474 -181 531 -162T639 -110L655 -133Q618 -158 578 -175T495 -201T408 -210ZM455 22Q494 22 533 42T600 98T637 179L643 228Q641 267 620 298T564 347T485 366Q436 366 394
340T325 271T299 173Q298 131 317 97T372 42T455 22Z" />
<glyph unicode="A" horiz-adv-x="707" d="M57 0L352 738H355L651 0H612L344 682L368 693L92 0H57ZM190 281H519L527 249H183L190 281Z" />
<glyph unicode="B" horiz-adv-x="582" d="M264 706Q365 706 420 664T475 527Q475 483 459 445T411 382T329 348L326 364Q376 359 418 336T485 275T511 185Q511 139 493 105T444 47T374 12T292 0H116V706H264ZM288 370Q369 370 404 413T439 521Q439 603 392 638T266
673H151V370H288ZM290 32Q341 32 383 48T450 99T476 183Q476 237 448 271T376 320T289 336H151V32H290Z" />
<glyph unicode="C" horiz-adv-x="691" d="M620 45Q595 31 566 19T502 -1T427 -8Q347 -8 281 20T168 98T96 211T71 349Q71 426 98 492T174 608T288 686T428 714Q482 714 530 700T618 662L602 630Q566 653 522 667T429 681Q363 681 305 656T202 585T132 479T107
349Q107 284 129 225T194 121T295 51T428 25Q479 25 522 39T602 75L620 45Z" />
<glyph unicode="D" horiz-adv-x="731" d="M116 0V706H284Q386 706 457 674T574 589T639 474T660 351Q660 270 633 206T557 95T448 25T318 0H116ZM151 33H307Q372 33 429 55T531 119T600 219T625 353Q625 412 605 469T543 571T438 644T286 672H151V33Z" />
<glyph unicode="E" horiz-adv-x="635" d="M116 706H545V673H151V373H506V339H151V33H559V0H116V706Z" />
<glyph unicode="F" horiz-adv-x="575" d="M116 706H505V673H151V362H465V329H151V0H116V706Z" />
<glyph unicode="G" horiz-adv-x="738" d="M643 47Q624 35 599 25T546 8T489 -4T433 -8Q350 -8 283 19T169 95T96 209T71 348Q71 427 99 493T176 609T291 686T431 714Q485 714 533 701T622 663L608 632Q584 646 555 657T496 674T435 680Q365 680 306 655T201 584T131
479T106 350Q106 282 129 223T195 120T298 51T432 26Q475 26 524 36T608 68V280H443V314H643V47Z" />
<glyph unicode="H" horiz-adv-x="744" d="M628 706V0H593V339H151V0H116V706H151V372H593V706H628Z" />
<glyph unicode="I" horiz-adv-x="267" d="M116 706H151V0H116V706Z" />
<glyph unicode="J" horiz-adv-x="320" d="M204 100Q204 23 177 -31T103 -113T1 -144V-144V-111Q73 -107 121 -52T169 103V706H204V100Z" />
<glyph unicode="K" horiz-adv-x="648" d="M151 378L150 343V349L517 706H562L269 421L600 0H555L244 399L150 310L151 0H116V706H151V378Z" />
<glyph unicode="L" horiz-adv-x="597" d="M116 706H151V33H546V0H116V706Z" />
<glyph unicode="M" horiz-adv-x="900" d="M116 0V720H117L458 235L443 237L784 720H785V0H750V639L753 623L451 196H449L145 623L150 637V0H116Z" />
<glyph unicode="N" horiz-adv-x="818" d="M700 -15L140 640L149 650L150 0H116V719H118L680 58L669 57L668 706H702V-15H700Z" />
<glyph unicode="O" horiz-adv-x="863" d="M71 352Q71 427 99 492T176 608T291 686T431 714Q505 714 570 686T686 608T764 493T793 352Q793 278 765 213T687 98T572 20T431 -8Q356 -8 291 19T177 94T99 208T71 352ZM106 351Q106 284 131 225T200 121T304 51T429
25Q497 25 556 50T661 120T732 224T758 352Q758 419 732 478T662 583T558 655T431 681Q362 681 303 655T199 582T131 477T106 351Z" />
<glyph unicode="P" horiz-adv-x="542" d="M271 706Q333 706 380 685T455 621T482 512Q482 473 470 437T430 371T362 325T261 307H151V0H116V706H271ZM261 341Q316 341 352 358T409 402T439 458T448 513Q448 550 436 579T401 629T346 661T273 673H151V341H261Z" />
<glyph unicode="Q" horiz-adv-x="881" d="M536 33H810V0H485L536 33ZM71 352Q71 427 99 492T176 608T291 686T431 714Q505 714 570 686T686 608T764 493T793 352Q793 278 765 213T687 98T572 20T431 -8Q356 -8 291 19T177 94T99 208T71 352ZM106 351Q106 284 131
225T200 121T304 51T429 25Q497 25 556 50T661 120T732 224T758 352Q758 419 732 478T662 583T558 654T431 680Q362 680 303 654T199 582T131 476T106 351Z" />
<glyph unicode="R" horiz-adv-x="625" d="M269 706Q304 706 341 696T411 662T463 601T483 512Q483 473 471 437T433 371T365 325T261 307H151V0H116V706H269ZM258 341Q315 341 351 356T409 397T439 451T448 510Q448 545 435 574T399 626T343 660T273 673H151V341H258ZM355
329L554 0H514L314 328L355 329Z" />
<glyph unicode="S" horiz-adv-x="566" d="M458 641Q428 654 383 667T292 680Q219 680 175 643T130 550Q130 508 155 481T219 434T305 398Q340 385 375 369T438 330T483 274T500 191Q500 131 472 86T395 17T283 -8Q228 -8 185 5T110 36T63 64L80 93Q101 78 133
62T202 34T279 23Q325 23 367 41T437 96T465 190Q465 244 439 277T371 332T284 370Q249 382 216 396T155 431T112 479T95 546Q95 595 120 631T189 689T288 710Q332 710 383 698T471 668L458 641Z" />
<glyph unicode="T" horiz-adv-x="576" d="M57 706H518V673H305V0H270V673H57V706Z" />
<glyph unicode="U" horiz-adv-x="700" d="M148 235Q148 169 174 122T246 50T350 25Q408 25 454 50T526 122T552 235V706H587V233Q587 156 556 102T471 20T350 -8V-8Q283 -8 229 20T144 102T113 233V706H148V235Z" />
<glyph unicode="V" horiz-adv-x="697" d="M91 706L360 21L341 23L606 706H646L349 -33L51 706H91Z" />
<glyph unicode="W" horiz-adv-x="989" d="M51 705H91L337 36L328 38L477 447L494 404L329 -33L51 705ZM373 705H407L661 33L648 37L900 705H937L652 -32L373 705Z" />
<glyph unicode="X" horiz-adv-x="604" d="M56 706H98L558 0H514L56 706ZM46 0L282 370L302 342L88 0H46ZM298 380L503 706H544L318 353L298 380Z" />
<glyph unicode="Y" horiz-adv-x="652" d="M309 257L45 706H87L334 286L321 285L566 706H607L344 257V0H309V257Z" />
<glyph unicode="Z" horiz-adv-x="700" d="M57 0Q84 36 113 77T175 162T240 253T308 345T375 436T441 525T502 608T559 682L567 673H146Q128 673 114 677T93 691T85 721V741H119V729Q119 718 125 712T149 706H614L113 27L110 33H642V0H57Z" />
<glyph unicode="[" horiz-adv-x="348" d="M116 749H290V716H153V-117H290V-150H116V749Z" />
<glyph unicode="\" horiz-adv-x="337" d="M47 739Q117 549 186 360T326 -19H291Q221 170 152 359T13 739H47Z" />
<glyph unicode="]" horiz-adv-x="348" d="M232 -150H57V-117H196V717H57V749H232V-150Z" />
<glyph unicode="^" horiz-adv-x="471" d="M326 481Q312 502 296 525T264 572T233 618Q218 596 202 573T170 526T139 481H113Q143 526 173 571T233 662V662Q263 617 293 572T353 481H326Z" />
<glyph unicode="_" horiz-adv-x="602" d="M101 31H502V0H101V31Z" />
<glyph unicode="`" horiz-adv-x="218" d="M-7 614H30L116 481H90L-7 614Z" />
<glyph unicode="a" horiz-adv-x="551" d="M250 -7Q195 -7 150 18T79 89T52 193Q52 257 79 302T153 371T258 395Q314 395 361 363T429 280L425 267L430 385H459V0H426V125L433 109Q424 86 407 65T365 28T312 2T250 -7ZM256 22Q303 22 340 42T401 98T426 179V228Q418
267 394 298T334 347T256 366Q209 366 171 345T109 285T86 194Q86 146 109 107T171 45T256 22Z" />
<glyph unicode="b" horiz-adv-x="553" d="M301 -7Q240 -7 190 26T118 110L125 134V0H91V756H125V263L122 285Q144 334 193 364T304 395Q358 395 402 369T473 297T500 195Q500 130 473 85T400 16T301 -7ZM296 22Q349 22 387 44T445 106T466 195Q466 241 445 280T386
342T296 366Q253 366 217 348T157 299T125 228V173Q127 134 150 100T211 44T296 22Z" />
<glyph unicode="c" horiz-adv-x="427" d="M383 38Q357 16 324 5T255 -7Q198 -7 152 19T79 90T52 193Q52 250 79 295T152 366T253 393Q291 393 324 382T384 348L366 325Q344 342 316 353T255 365Q208 365 170 342T109 280T86 193Q86 146 108 107T170 45T257 22Q288
22 315 32T364 59L383 38Z" />
<glyph unicode="d" horiz-adv-x="553" d="M249 -7Q194 -7 150 19T79 91T52 194Q52 255 79 300T151 370T252 395Q310 395 360 363T434 280L427 263V756H461V0H427V125L434 106Q410 56 360 25T249 -7ZM256 22Q303 22 341 43T402 101T427 182V224Q420 264 395 296T335
347T256 366Q209 366 171 345T109 285T86 195Q86 147 109 108T171 46T256 22Z" />
<glyph unicode="e" horiz-adv-x="477" d="M255 -7Q197 -7 151 19T79 91T52 194Q52 249 79 295T153 368T256 396Q322 396 367 357T435 257L92 122L82 148L404 276L397 264Q378 306 342 336T254 366Q207 366 169 343T109 282T86 195Q86 150 107 111T166 47T256 22Q289
22 319 34T374 68L392 43Q365 21 330 7T255 -7Z" />
<glyph unicode="f" horiz-adv-x="308" d="M115 0V352H48V383H115V586Q115 681 145 721T235 761Q247 761 260 758T284 749L270 725Q264 729 256 731T237 733Q192 733 171 702T149 588V383H279V352H149V0H115Z" />
<glyph unicode="g" horiz-adv-x="554" d="M258 -187Q229 -187 201 -180T143 -156T81 -108L101 -85Q147 -129 185 -142T256 -156Q321 -156 358 -136T410 -81T428 -6L429 126L438 117Q417 62 366 28T250 -7Q196 -7 151 20T79 92T52 194Q52 253 79 298T153 369T256
395Q313 395 362 364T433 284L428 268L433 385H462V-7Q462 -53 443 -94T379 -161T258 -187ZM86 194Q86 146 109 107T171 45T257 22Q304 22 342 43T403 100T429 176V227Q421 267 397 298T336 347T257 366Q210 366 171 344T109 284T86 194Z" />
<glyph unicode="h" horiz-adv-x="500" d="M91 0V756H124V280L122 295Q141 336 185 365T288 394Q342 394 374 362T408 279V0H374V272Q373 310 349 336T279 364Q239 364 204 345T147 291T125 214V0H91Z" />
<glyph unicode="i" horiz-adv-x="217" d="M91 385H125V0H91V385ZM80 773Q80 784 89 792T110 800Q121 800 129 792T138 773Q138 761 130 753T110 745Q98 745 89 753T80 773Z" />
<glyph unicode="j" horiz-adv-x="220" d="M68 -185L45 -164Q71 -137 86 -98T101 -8V385H136V-6Q136 -67 119 -111T68 -185ZM90 773Q90 784 99 792T120 800Q131 800 139 792T148 773Q148 761 140 753T120 745Q108 745 99 753T90 773Z" />
<glyph unicode="k" horiz-adv-x="437" d="M91 0V756H125V0H91ZM212 248L391 0H352L187 229L212 248ZM113 145L110 180L345 392L366 374L113 145Z" />
<glyph unicode="l" horiz-adv-x="217" d="M91 756H125V0H91V756Z" />
<glyph unicode="m" horiz-adv-x="776" d="M120 385L124 271L118 281Q137 333 183 363T286 394Q318 394 344 381T387 346T406 296L401 290Q421 341 466 367T564 394Q619 394 651 363T685 284V0H651V276Q650 311 627 336T559 364Q519 364 485 345T429 293T405 219V0H371V276Q370
311 347 336T279 364Q238 364 203 345T147 291T125 214V0H91V385H120Z" />
<glyph unicode="n" horiz-adv-x="500" d="M120 385L124 262L120 281Q136 334 183 364T288 394Q342 394 374 362T408 279V0H374V272Q373 310 349 336T279 364Q239 364 204 346T147 293T125 214V0H91V385H120Z" />
<glyph unicode="o" horiz-adv-x="511" d="M52 194Q52 250 79 296T152 369T256 396Q313 396 359 369T432 296T459 194Q459 138 432 93T359 20T255 -7Q198 -7 152 19T79 90T52 194ZM86 194Q86 145 108 107T169 45T255 22Q302 22 340 45T401 106T424 194Q424 241
401 280T340 342T255 366Q207 366 169 341T108 277T86 194Z" />
<glyph unicode="p" horiz-adv-x="553" d="M299 -7Q240 -7 191 24T120 106L125 126V-185H91V386H122L125 252L120 281Q144 331 193 363T303 395Q358 395 402 369T473 296T500 193Q500 136 473 90T401 19T299 -7ZM294 21Q342 21 380 44T442 106T466 193Q466 241
443 280T382 342T296 365Q250 365 212 344T150 285T125 202V180Q127 137 150 101T211 43T294 21Z" />
<glyph unicode="q" horiz-adv-x="553" d="M248 -7Q194 -7 150 19T79 90T52 193Q52 251 79 296T152 368T256 395Q313 395 363 362T435 278L427 252V386H461V-185H427V131L432 103Q410 54 360 24T248 -7ZM256 21Q302 21 339 42T400 99T427 178V202Q425 248 402 285T341
343T256 365Q210 365 171 342T109 280T86 193Q86 145 109 106T171 44T256 21Z" />
<glyph unicode="r" horiz-adv-x="332" d="M120 385L124 266L120 279Q132 315 158 340T219 379T288 394L287 361Q242 361 206 341T147 288T125 212V0H91V385H120Z" />
<glyph unicode="s" horiz-adv-x="356" d="M176 -8Q145 -8 110 3T52 43L69 64Q87 44 114 32T175 20Q198 20 219 27T255 52T269 100Q269 129 253 145T214 170T163 188Q123 202 95 224T67 290Q67 322 82 344T123 379T179 392Q206 392 235 382T289 348L273 324Q256
346 230 354T183 363Q165 363 146 356T114 334T101 294Q101 271 113 256T146 232T188 214Q216 205 242 193T285 161T302 107Q302 74 288 48T246 7T176 -8Z" />
<glyph unicode="t" horiz-adv-x="315" d="M130 553H165V378H288V350H165V0H130V350H45V378H130V553Z" />
<glyph unicode="u" horiz-adv-x="498" d="M212 -10Q157 -10 125 22T91 106V385H125V114Q127 75 151 49T222 20Q261 20 295 40T351 94T373 172V385H407V0H377L373 120L379 101Q369 70 344 45T284 5T212 -10Z" />
<glyph unicode="v" horiz-adv-x="443" d="M220 -16L31 385H70L234 21L214 22L375 385H412L226 -16H220Z" />
<glyph unicode="w" horiz-adv-x="662" d="M298 385L454 35L445 34L597 385H631L450 -24L326 253L212 -24L31 385H65L223 30L210 35L312 285L266 385H298Z" />
<glyph unicode="x" horiz-adv-x="387" d="M194 211L315 384H351L210 186L194 211ZM356 0H317L31 385H73L356 0ZM196 172L72 0H35L176 194L196 172Z" />
<glyph unicode="y" horiz-adv-x="443" d="M127 -185L378 385H412L164 -185H127ZM212 -4L31 385H68L238 14L212 -4Z" />
<glyph unicode="z" horiz-adv-x="386" d="M93 356Q68 356 53 366T38 408V421H65V409Q65 398 73 392T98 385H348L92 22L84 29H343V0H38L297 365L305 356H93Z" />
<glyph unicode="{" horiz-adv-x="292" d="M197 717Q177 717 166 707T150 672T145 608V465Q145 406 136 374T111 326T79 300Q95 290 110 274T135 226T145 138V-8Q145 -48 149 -72T165 -107T197 -118H251V-149H207Q186 -149 168 -147T138 -133T118 -89T110 0V149Q110
176 104 206T80 258T31 281V281V319Q62 321 79 342T103 394T110 452V630Q110 676 118 700T140 735T171 747T207 749H251V717H197Z" />
<glyph unicode="|" horiz-adv-x="233" d="M97 703H129V-233H97V703Z" />
<glyph unicode="}" horiz-adv-x="333" d="M136 -118Q157 -118 168 -108T183 -73T188 -8V166Q188 209 199 236T226 278T254 300Q238 310 223 326T198 373T188 462V608Q188 649 184 673T168 707T136 717H82V749H126Q144 749 161 747T192 735T214 701T223 630V481Q223
463 224 437T232 384T255 339T302 319V319V280Q272 279 256 260T233 215T225 163T223 118V-31Q223 -77 215 -101T193 -136T162 -147T126 -149H82V-118H136Z" />
<glyph unicode="~" horiz-adv-x="395" d="M271 453Q242 453 224 468T189 500Q176 515 162 527T127 540Q116 540 103 532T81 503T70 448L46 449Q46 489 57 515T88 555T128 569Q157 569 174 554T207 521Q221 505 236 493T271 481Q285 481 296 489T315 518T325 574L349
573Q349 532 339 506T311 466T271 453Z" />
<glyph unicode="&#xa0;" horiz-adv-x="304" />
<glyph unicode="&#xa1;" horiz-adv-x="201" d="M84 -211H115V370H84V-211ZM101 515Q88 515 79 506T69 484Q69 472 78 463T101 454Q114 454 123 463T132 484Q132 497 123 506T101 515Z" />
<glyph unicode="&#xa2;" horiz-adv-x="427" d="M235 449H260V-68H235V449ZM383 38Q357 16 324 5T255 -7Q198 -7 152 19T79 90T52 193Q52 250 79 295T152 366T253 393Q291 393 324 382T384 348L366 325Q344 342 316 353T255 365Q208 365 170 342T109 280T86 193Q86
146 108 107T170 45T257 22Q288 22 315 32T364 59L383 38Z" />
<glyph unicode="&#xa3;" horiz-adv-x="584" d="M297 340V306H67V340H297ZM132 510Q132 556 153 587T212 634T303 650Q370 650 408 625T467 558L442 542Q428 567 411 583T369 608T303 616Q250 616 220 601T178 561T165 504V156V126Q165 113 164 95T158 60T143 34H135H378Q432
34 456 44T480 84V137H511V93Q511 75 508 59T494 29T458 8T389 0H35V34H80Q103 34 114 46T128 88T132 172V510Z" />
<glyph unicode="&#xa4;" horiz-adv-x="501" d="M354 446Q385 409 385 361Q385 336 376 313T352 272L390 234L372 216Q362 226 353 235T333 255Q297 224 247 224Q224 224 202 232T163 254V254L124 215L106 233L144 271Q129 289 120 312T111 361V361Q111 385 119
407T142 447Q133 456 124 464T106 482L124 500L160 465Q177 480 199 489T248 498Q274 498 296 489T336 464V464L372 499L390 481L354 446ZM136 361Q136 330 151 304T192 264T248 249Q279 249 304 264T344 304T360 361Q360 392 345 418T305 458T248 473Q218 473
192 459T151 419T136 361V361Z" />
<glyph unicode="&#xa5;" horiz-adv-x="652" d="M154 283H494V253H154V283ZM154 124H493V94H154V124ZM309 295L45 706H87L334 324L321 322L566 706H607L344 295V0H309V295Z" />
<glyph unicode="&#xa6;" horiz-adv-x="216" d="M94 703H126V351H94V703ZM94 118H126V-234H94V118Z" />
<glyph unicode="&#xa7;" horiz-adv-x="562" d="M353 134L343 146Q381 137 412 121T462 77T481 7Q481 -37 453 -74T377 -132T267 -154Q213 -154 170 -141T96 -110T50 -82L67 -53Q89 -69 120 -85T189 -111T264 -122Q309 -122 350 -107T418 -63T445 6Q445 46 421
70T357 107T273 132Q237 142 203 153T140 182T95 227T78 294Q78 340 103 374T170 428T261 448L257 438Q216 450 183 467T129 513T109 584Q109 612 122 637T161 682T222 714T300 726Q341 726 391 714T478 682L462 657Q433 672 390 683T304 696Q254 696 219 680T164
639T144 585Q144 546 166 523T228 486T319 458Q354 449 388 438T451 408T495 363T512 295Q512 234 468 191T353 134ZM477 290Q477 332 452 358T384 400T294 430Q211 430 162 393T113 299Q113 255 138 229T211 187T320 154Q354 157 390 173T452 219T477 290Z" />
<glyph unicode="&#xa8;" horiz-adv-x="381" d="M77 507Q77 518 85 526T105 535Q116 535 124 527T133 506Q133 495 125 487T105 478Q94 478 86 486T77 507V507ZM248 507Q248 518 256 526T276 535Q286 535 295 527T304 506Q304 495 295 487T276 478Q265 478 257
486T248 507V507Z" />
<glyph unicode="&#xa9;" horiz-adv-x="804" d="M508 228Q489 214 465 205T411 196Q362 197 325 220T266 281T245 365Q245 413 268 451T329 511T413 534Q429 534 445 532T476 524T504 509L491 483Q474 495 455 500T415 505Q380 505 349 487T299 437T279 365Q279
326 296 295T344 246T414 227Q435 227 455 233T492 252L508 228ZM402 89Q344 89 294 109T206 166T147 253T126 362Q126 423 147 473T206 560T294 617T402 638Q460 638 510 618T597 560T656 473T678 363Q678 303 659 254T603 167T516 109T402 89ZM401 118Q469 118
525 150T614 237T647 361Q647 433 614 488T525 576T401 608Q334 608 278 577T190 489T157 361Q157 291 186 236T269 150T401 118Z" />
<glyph unicode="&#xaa;" horiz-adv-x="413" d="M184 416Q145 416 113 434T61 486T42 562Q42 609 61 641T113 691T184 709Q228 709 263 688T314 630L309 617L313 702H338V420H310V511L317 500Q308 477 288 458T242 428T184 416ZM190 440Q222 440 249 454T292 494T310
552V586Q301 627 268 655T190 684Q140 684 105 651T70 562Q70 528 86 501T130 457T190 440Z" />
<glyph unicode="&#xab;" horiz-adv-x="602" d="M101 240Q113 251 128 264T159 293T193 324T226 354T258 382T285 408V373Q270 358 253 341T218 307T183 272T151 240Q166 225 183 208T218 173T253 138T285 104V71L101 240ZM284 240Q297 251 311 264T342 293T376
324T410 354T442 382T469 408V373Q454 358 437 341T401 307T366 272T334 240Q349 225 366 208T401 173T436 138T469 104V71L284 240Z" />
<glyph unicode="&#xac;" horiz-adv-x="545" d="M92 255H453V139H419V221H92V255Z" />
<glyph unicode="&#xad;" horiz-adv-x="600" d="M53 212H238V181H53V212Z" />
<glyph unicode="&#xae;" horiz-adv-x="382" d="M191 398Q148 398 113 417T58 471T37 550Q37 594 58 628T113 682T191 702Q234 702 268 683T323 629T344 550Q344 506 324 472T269 418T191 398ZM190 421Q226 421 255 437T302 483T320 550Q320 587 303 616T256 662T190
679Q155 679 126 662T80 616T62 550Q62 513 79 484T125 438T190 421ZM136 640H190Q212 640 229 629T247 589Q247 565 233 550T187 535H159V467H136V640ZM184 555Q205 555 213 565T222 589Q222 606 211 613T188 620H161V555H184ZM213 542L253 467H227L188 541L213
542Z" />
<glyph unicode="&#xaf;" horiz-adv-x="392" d="M80 514H313V487H80V514Z" />
<glyph unicode="&#xb0;" horiz-adv-x="283" d="M55 561Q55 584 66 603T96 633T138 644Q162 644 180 634T210 604T221 561Q221 538 210 520T180 490T139 479Q115 479 96 490T66 519T55 561V561ZM139 503Q162 503 179 520T197 562Q197 586 180 603T139 620Q114 620
97 603T79 562Q79 537 96 520T139 503V503Z" />
<glyph unicode="&#xb1;" horiz-adv-x="526" d="M251 573H283V409H447V377H283V212H251V377H87V409H251V573ZM87 156H447V124H87V156Z" />
<glyph unicode="&#xb2;" horiz-adv-x="398" d="M98 652Q111 671 135 685T190 699Q237 698 265 673T294 595Q294 564 278 534T236 474T181 418T126 364L125 387H309V358H94V371Q124 398 153 426T206 482T244 537T259 589Q259 633 237 651T183 669Q157 669 140 659T111
632L98 652Z" />
<glyph unicode="&#xb3;" horiz-adv-x="408" d="M167 358Q134 358 111 371T73 399L86 420Q97 407 116 395T165 383Q205 383 227 409T250 474Q250 511 227 529T173 548Q150 548 137 544T111 535L109 539L216 682L227 670H83V697H256L150 551L125 552Q136 560 151
564T182 569Q208 571 231 559T268 525T282 473Q282 440 268 414T229 373T167 358Z" />
<glyph unicode="&#xb4;" horiz-adv-x="223" d="M175 614L76 481H49L137 614H175Z" />
<glyph unicode="&#xb5;" horiz-adv-x="498" d="M212 -10Q166 -10 137 13T97 74L125 76V-201H91V109V385H125V114Q127 75 151 49T222 20Q261 20 295 40T351 94T373 172V385H407V0H377L373 123L377 102Q368 71 343 46T284 6T212 -10Z" />
<glyph unicode="&#xb6;" horiz-adv-x="505" d="M202 424Q156 424 119 446T60 505T38 588Q38 634 60 671T119 731T202 753H396V0H365V722H233V0H202V424Z" />
<glyph unicode="&#xb7;" horiz-adv-x="165" d="M62 281Q62 293 70 301T90 310Q101 310 109 302T118 281Q118 269 110 261T90 253Q79 253 71 261T62 281V281Z" />
<glyph unicode="&#xb8;" horiz-adv-x="440" d="M137 -176Q148 -187 167 -194T212 -202Q250 -202 273 -187T297 -144Q297 -119 278 -102T218 -84Q202 -84 181 -88T147 -98L132 -79L204 4L230 -3L163 -86L147 -79Q158 -72 180 -67T223 -61Q273 -61 301 -82T329 -143Q329
-171 314 -189T273 -216T215 -225Q186 -225 162 -217T123 -195L137 -176Z" />
<glyph unicode="&#xb9;" horiz-adv-x="255" d="M71 655H152V337H119V624H71V655Z" />
<glyph unicode="&#xba;" horiz-adv-x="381" d="M42 557Q42 599 61 632T115 686T190 706Q233 706 266 686T320 633T340 557Q340 517 320 484T267 431T191 411Q149 411 115 430T62 482T42 557ZM71 557Q71 524 87 497T130 453T190 436Q223 436 250 452T294 496T311
557Q311 591 295 619T251 663T191 680Q156 680 129 663T87 617T71 557Z" />
<glyph unicode="&#xbb;" horiz-adv-x="602" d="M479 240Q467 251 452 264T421 293T387 324T353 354T322 382T295 408V373Q310 358 327 341T362 307T397 272T429 240Q414 225 397 208T362 173T327 138T295 104V71L479 240ZM295 240Q283 251 269 264T238 293T204
324T170 354T138 382T111 408V373Q126 358 143 341T178 307T213 272T245 240Q230 225 213 208T178 173T143 138T111 104V71L295 240Z" />
<glyph unicode="&#xbc;" horiz-adv-x="744" d="M562 668L155 0H122L528 668H562ZM75 655H156V337H123V624H75V655ZM690 130V106H457L456 119L635 327H652V0H621V288L629 283L486 119L480 130H690Z" />
<glyph unicode="&#xbd;" horiz-adv-x="805" d="M75 659H156V341H123V628H75V659ZM502 292Q515 311 539 325T594 339Q641 338 669 313T698 235Q698 204 682 174T640 114T585 58T530 4L529 27H713V-2H498V11Q528 38 557 66T610 122T648 177T663 229Q663 273 641
291T587 309Q561 309 544 299T515 272L502 292ZM571 669L165 0H131L537 669H571Z" />
<glyph unicode="&#xbe;" horiz-adv-x="719" d="M400 358Q367 358 344 371T306 399L319 420Q330 407 349 395T398 383Q438 383 460 409T483 474Q483 511 460 529T406 548Q383 548 370 544T344 535L342 539L449 682L460 670H316V697H489L383 551L358 552Q369 560
384 564T415 569Q441 571 464 559T501 525T515 473Q515 440 501 414T462 373T400 358ZM569 669L163 0H129L535 669H569ZM661 130V107H427L426 119L605 327H622V0H592V289L600 283L457 119L450 130H661Z" />
<glyph unicode="&#xbf;" horiz-adv-x="417" d="M254 370V293Q254 246 240 222T204 183T156 149Q119 121 95 88T70 0Q70 -47 92 -84T151 -142T234 -164Q272 -164 304 -149T360 -107T395 -46L425 -57Q415 -84 398 -108T355 -152T299 -184T232 -196Q177 -196 132
-171T61 -101T35 -2Q35 37 47 67T81 123T131 169Q156 188 176 201T208 236T220 301V370H254ZM234 512Q247 512 256 504T266 481Q266 469 257 460T234 451Q221 451 213 460T204 481Q204 495 212 503T234 512Z" />
<glyph unicode="&#xc0;" horiz-adv-x="707" d="M57 0L352 738H355L651 0H612L344 682L368 693L92 0H57ZM190 281H519L527 249H183L190 281ZM248 892H285L371 759H345L248 892Z" />
<glyph unicode="&#xc1;" horiz-adv-x="707" d="M57 0L352 738H355L651 0H612L344 682L368 693L92 0H57ZM190 281H519L527 249H183L190 281ZM724 882L625 749H598L686 882H724Z" />
<glyph unicode="&#xc2;" horiz-adv-x="707" d="M57 0L352 738H355L651 0H612L344 682L368 693L92 0H57ZM190 281H519L527 249H183L190 281ZM460 774L346 903L363 905L248 774H214L353 930H354L494 774H460Z" />
<glyph unicode="&#xc3;" horiz-adv-x="707" d="M57 0L352 738H355L651 0H612L344 682L368 693L92 0H57ZM190 281H519L527 249H183L190 281ZM427 778Q398 778 381 792T347 824Q334 838 321 850T287 862Q276 862 264 854T242 827T232 772L209 774Q209 813 220 838T249
877T288 890Q316 890 333 875T365 844Q378 828 392 816T427 804Q447 804 462 823T480 895L503 893Q503 854 493 828T465 790T427 778Z" />
<glyph unicode="&#xc4;" horiz-adv-x="707" d="M57 0L352 738H355L651 0H612L344 682L368 693L92 0H57ZM190 281H519L527 249H183L190 281ZM239 797Q239 808 247 816T267 825Q278 825 286 817T295 796Q295 785 287 777T267 768Q256 768 248 776T239 797V797ZM410
797Q410 808 418 816T438 825Q448 825 457 817T466 796Q466 785 457 777T438 768Q427 768 419 776T410 797V797Z" />
<glyph unicode="&#xc5;" horiz-adv-x="707" d="M57 0L352 738H355L651 0H612L344 682L368 693L92 0H57ZM190 281H519L527 249H183L190 281ZM284 844Q284 874 304 894T354 914Q385 914 404 894T424 844Q424 814 405 795T354 775Q324 775 304 794T284 844ZM306 844Q306
825 320 811T354 796Q373 796 387 810T401 844Q401 864 387 878T355 892Q335 892 321 878T306 844Z" />
<glyph unicode="&#xc6;" horiz-adv-x="929" d="M466 706H838V672H500V372H799V338H500V34H852V0H466V706ZM479 679Q477 672 475 665T470 651L61 0H22L466 706L479 679ZM178 230H476V201H171L178 230Z" />
<glyph unicode="&#xc7;" horiz-adv-x="691" d="M620 45Q595 31 566 19T502 -1T427 -8Q347 -8 281 20T168 98T96 211T71 349Q71 426 98 492T174 608T288 686T428 714Q482 714 530 700T618 662L602 630Q566 653 522 667T429 681Q363 681 305 656T202 585T132 479T107
349Q107 284 129 225T194 121T295 51T428 25Q479 25 522 39T602 75L620 45ZM591 -176Q602 -187 621 -194T666 -202Q704 -202 727 -187T751 -144Q751 -119 732 -102T672 -84Q656 -84 635 -88T601 -98L586 -79L658 4L684 -3L617 -86L601 -79Q612 -72 634 -67T677
-61Q727 -61 755 -82T783 -143Q783 -171 768 -189T727 -216T669 -225Q640 -225 616 -217T577 -195L591 -176Z" />
<glyph unicode="&#xc8;" horiz-adv-x="635" d="M116 706H545V673H151V373H506V339H151V33H559V0H116V706ZM214 889H251L337 756H311L214 889Z" />
<glyph unicode="&#xc9;" horiz-adv-x="635" d="M116 706H545V673H151V373H506V339H151V33H559V0H116V706ZM690 879L591 746H564L652 879H690Z" />
<glyph unicode="&#xca;" horiz-adv-x="635" d="M116 706H545V673H151V373H506V339H151V33H559V0H116V706ZM426 771L312 900L329 902L214 771H180L319 927H320L460 771H426Z" />
<glyph unicode="&#xcb;" horiz-adv-x="635" d="M116 706H545V673H151V373H506V339H151V33H559V0H116V706ZM205 794Q205 805 213 813T233 822Q244 822 252 814T261 793Q261 782 253 774T233 765Q222 765 214 773T205 794V794ZM376 794Q376 805 384 813T404 822Q414
822 423 814T432 793Q432 782 423 774T404 765Q393 765 385 773T376 794V794Z" />
<glyph unicode="&#xcc;" horiz-adv-x="267" d="M116 706H151V0H116V706ZM28 889H65L151 756H125L28 889Z" />
<glyph unicode="&#xcd;" horiz-adv-x="267" d="M116 706H151V0H116V706ZM504 879L405 746H378L466 879H504Z" />
<glyph unicode="&#xce;" horiz-adv-x="267" d="M116 706H151V0H116V706ZM240 771L126 900L143 902L28 771H-6L133 927H134L274 771H240Z" />
<glyph unicode="&#xcf;" horiz-adv-x="267" d="M116 706H151V0H116V706ZM19 794Q19 805 27 813T47 822Q58 822 66 814T75 793Q75 782 67 774T47 765Q36 765 28 773T19 794V794ZM190 794Q190 805 198 813T218 822Q228 822 237 814T246 793Q246 782 237 774T218
765Q207 765 199 773T190 794V794Z" />
<glyph unicode="&#xd0;" horiz-adv-x="731" d="M116 0V706H284Q386 706 457 674T574 589T639 474T660 351Q660 270 633 206T557 95T448 25T318 0H116ZM151 33H307Q372 33 429 55T531 119T600 219T625 353Q625 412 605 469T543 571T438 644T286 672H151V33ZM269
368H505V336H269V368Z" />
<glyph unicode="&#xd1;" horiz-adv-x="818" d="M700 -15L140 640L149 650L150 0H116V719H118L680 58L669 57L668 706H702V-15H700ZM479 772Q450 772 433 786T399 818Q386 832 373 844T339 856Q328 856 316 848T294 821T284 766L261 768Q261 807 272 832T301 871T340
884Q368 884 385 869T417 838Q430 822 444 810T479 798Q499 798 514 817T532 889L555 887Q555 848 545 822T517 784T479 772Z" />
<glyph unicode="&#xd2;" horiz-adv-x="863" d="M71 352Q71 427 99 492T176 608T291 686T431 714Q505 714 570 686T686 608T764 493T793 352Q793 278 765 213T687 98T572 20T431 -8Q356 -8 291 19T177 94T99 208T71 352ZM106 351Q106 284 131 225T200 121T304 51T429
25Q497 25 556 50T661 120T732 224T758 352Q758 419 732 478T662 583T558 655T431 681Q362 681 303 655T199 582T131 477T106 351ZM326 887H363L449 754H423L326 887Z" />
<glyph unicode="&#xd3;" horiz-adv-x="863" d="M71 352Q71 427 99 492T176 608T291 686T431 714Q505 714 570 686T686 608T764 493T793 352Q793 278 765 213T687 98T572 20T431 -8Q356 -8 291 19T177 94T99 208T71 352ZM106 351Q106 284 131 225T200 121T304 51T429
25Q497 25 556 50T661 120T732 224T758 352Q758 419 732 478T662 583T558 655T431 681Q362 681 303 655T199 582T131 477T106 351ZM802 877L703 744H676L764 877H802Z" />
<glyph unicode="&#xd4;" horiz-adv-x="863" d="M71 352Q71 427 99 492T176 608T291 686T431 714Q505 714 570 686T686 608T764 493T793 352Q793 278 765 213T687 98T572 20T431 -8Q356 -8 291 19T177 94T99 208T71 352ZM106 351Q106 284 131 225T200 121T304 51T429
25Q497 25 556 50T661 120T732 224T758 352Q758 419 732 478T662 583T558 655T431 681Q362 681 303 655T199 582T131 477T106 351ZM538 769L424 898L441 900L326 769H292L431 925H432L572 769H538Z" />
<glyph unicode="&#xd5;" horiz-adv-x="863" d="M71 352Q71 427 99 492T176 608T291 686T431 714Q505 714 570 686T686 608T764 493T793 352Q793 278 765 213T687 98T572 20T431 -8Q356 -8 291 19T177 94T99 208T71 352ZM106 351Q106 284 131 225T200 121T304 51T429
25Q497 25 556 50T661 120T732 224T758 352Q758 419 732 478T662 583T558 655T431 681Q362 681 303 655T199 582T131 477T106 351ZM505 774Q476 774 459 788T425 820Q412 834 399 846T365 858Q354 858 342 850T320 823T310 768L287 770Q287 809 298 834T327 873T366
886Q394 886 411 871T443 840Q456 824 470 812T505 800Q525 800 540 819T558 891L581 889Q581 850 571 824T543 786T505 774Z" />
<glyph unicode="&#xd6;" horiz-adv-x="863" d="M71 352Q71 427 99 492T176 608T291 686T431 714Q505 714 570 686T686 608T764 493T793 352Q793 278 765 213T687 98T572 20T431 -8Q356 -8 291 19T177 94T99 208T71 352ZM106 351Q106 284 131 225T200 121T304 51T429
25Q497 25 556 50T661 120T732 224T758 352Q758 419 732 478T662 583T558 655T431 681Q362 681 303 655T199 582T131 477T106 351ZM317 792Q317 803 325 811T345 820Q356 820 364 812T373 791Q373 780 365 772T345 763Q334 763 326 771T317 792V792ZM488 792Q488
803 496 811T516 820Q526 820 535 812T544 791Q544 780 535 772T516 763Q505 763 497 771T488 792V792Z" />
<glyph unicode="&#xd7;" horiz-adv-x="504" d="M266 167Q295 196 324 224T382 282Q388 277 394 270T407 257Q378 228 349 200T292 142Q321 113 349 84T408 25L381 0Q352 29 324 58T265 116Q237 87 208 58T150 1Q144 6 138 12T125 25Q154 55 182 83T240 141L125
257L151 282L266 167Z" />
<glyph unicode="&#xd8;" horiz-adv-x="857" d="M730 703L136 -4L115 16L709 723L730 703ZM71 352Q71 427 99 492T176 608T291 686T431 714Q505 714 570 686T686 608T764 493T793 352Q793 278 765 213T687 98T572 20T431 -8Q356 -8 291 19T177 94T99 208T71 352ZM106
351Q106 284 131 225T200 121T304 51T429 25Q497 25 556 50T661 120T732 224T758 352Q758 419 732 478T662 583T558 655T431 681Q362 681 303 655T199 582T131 477T106 351Z" />
<glyph unicode="&#xd9;" horiz-adv-x="700" d="M148 235Q148 169 174 122T246 50T350 25Q408 25 454 50T526 122T552 235V706H587V233Q587 156 556 102T471 20T350 -8V-8Q283 -8 229 20T144 102T113 233V706H148V235ZM244 889H281L367 756H341L244 889Z" />
<glyph unicode="&#xda;" horiz-adv-x="700" d="M148 235Q148 169 174 122T246 50T350 25Q408 25 454 50T526 122T552 235V706H587V233Q587 156 556 102T471 20T350 -8V-8Q283 -8 229 20T144 102T113 233V706H148V235ZM720 879L621 746H594L682 879H720Z" />
<glyph unicode="&#xdb;" horiz-adv-x="700" d="M148 235Q148 169 174 122T246 50T350 25Q408 25 454 50T526 122T552 235V706H587V233Q587 156 556 102T471 20T350 -8V-8Q283 -8 229 20T144 102T113 233V706H148V235ZM457 771L343 900L360 902L245 771H211L350
927H351L491 771H457Z" />
<glyph unicode="&#xdc;" horiz-adv-x="700" d="M148 235Q148 169 174 122T246 50T350 25Q408 25 454 50T526 122T552 235V706H587V233Q587 156 556 102T471 20T350 -8V-8Q283 -8 229 20T144 102T113 233V706H148V235ZM236 794Q236 805 244 813T264 822Q275 822
283 814T292 793Q292 782 284 774T264 765Q253 765 245 773T236 794V794ZM407 794Q407 805 415 813T435 822Q445 822 454 814T463 793Q463 782 454 774T435 765Q424 765 416 773T407 794V794Z" />
<glyph unicode="&#xdd;" horiz-adv-x="652" d="M309 257L45 706H87L334 286L321 285L566 706H607L344 257V0H309V257ZM700 876L601 743H574L662 876H700Z" />
<glyph unicode="&#xde;" horiz-adv-x="542" d="M274 548Q308 548 345 537T413 503T463 444T482 354Q482 315 470 279T431 213T363 167T263 149H151V0H116V703H151V548H274ZM263 183Q317 183 352 199T408 243T438 299T447 355Q447 401 424 437T359 493T264 514H151V183H263Z"
/>
<glyph unicode="&#xdf;" horiz-adv-x="570" d="M113 433Q113 505 135 555T197 632T295 660Q350 660 385 640T438 588T456 521Q456 473 433 440T368 390Q411 380 444 353T496 285T516 196Q516 137 489 91T415 18T313 -9Q281 -9 254 0T205 23L219 46Q238 32 261
26T309 19Q358 19 397 43T459 108T482 197Q482 246 460 285T399 349T312 372H307V404Q355 404 388 433T422 512Q422 542 408 569T367 613T297 630Q222 630 185 575T147 428V0H113V363H48V393H113V433Z" />
<glyph unicode="&#xe0;" horiz-adv-x="551" d="M250 -7Q195 -7 150 18T79 89T52 193Q52 257 79 302T153 371T258 395Q314 395 361 363T429 280L425 267L430 385H459V0H426V125L433 109Q424 86 407 65T365 28T312 2T250 -7ZM256 22Q303 22 340 42T401 98T426 179V228Q418
267 394 298T334 347T256 366Q209 366 171 345T109 285T86 194Q86 146 109 107T171 45T256 22ZM173 618H210L296 485H270L173 618Z" />
<glyph unicode="&#xe1;" horiz-adv-x="551" d="M250 -7Q195 -7 150 18T79 89T52 193Q52 257 79 302T153 371T258 395Q314 395 361 363T429 280L425 267L430 385H459V0H426V125L433 109Q424 86 407 65T365 28T312 2T250 -7ZM256 22Q303 22 340 42T401 98T426 179V228Q418
267 394 298T334 347T256 366Q209 366 171 345T109 285T86 194Q86 146 109 107T171 45T256 22ZM357 601L258 468H231L319 601H357Z" />
<glyph unicode="&#xe2;" horiz-adv-x="551" d="M250 -7Q195 -7 150 18T79 89T52 193Q52 257 79 302T153 371T258 395Q314 395 361 363T429 280L425 267L430 385H459V0H426V125L433 109Q424 86 407 65T365 28T312 2T250 -7ZM256 22Q303 22 340 42T401 98T426 179V228Q418
267 394 298T334 347T256 366Q209 366 171 345T109 285T86 194Q86 146 109 107T171 45T256 22ZM386 740L272 869L289 871L174 740H140L279 896H280L420 740H386Z" />
<glyph unicode="&#xe3;" horiz-adv-x="551" d="M250 -7Q195 -7 150 18T79 89T52 193Q52 257 79 302T153 371T258 395Q314 395 361 363T429 280L425 267L430 385H459V0H426V125L433 109Q424 86 407 65T365 28T312 2T250 -7ZM256 22Q303 22 340 42T401 98T426 179V228Q418
267 394 298T334 347T256 366Q209 366 171 345T109 285T86 194Q86 146 109 107T171 45T256 22ZM352 454Q323 454 305 468T272 500Q259 514 245 526T212 538Q200 538 188 530T167 503T156 449L133 450Q133 489 144 515T174 553T213 566Q240 566 257 552T290 520Q303
505 317 493T352 481Q372 481 387 500T404 571L427 570Q427 531 417 505T390 467T352 454Z" />
<glyph unicode="&#xe4;" horiz-adv-x="551" d="M250 -7Q195 -7 150 18T79 89T52 193Q52 257 79 302T153 371T258 395Q314 395 361 363T429 280L425 267L430 385H459V0H426V125L433 109Q424 86 407 65T365 28T312 2T250 -7ZM256 22Q303 22 340 42T401 98T426 179V228Q418
267 394 298T334 347T256 366Q209 366 171 345T109 285T86 194Q86 146 109 107T171 45T256 22ZM165 511Q165 522 173 530T193 539Q204 539 212 531T221 510Q221 499 213 491T193 482Q182 482 174 490T165 511V511ZM336 511Q336 522 344 530T364 539Q374 539 383
531T392 510Q392 499 383 491T364 482Q353 482 345 490T336 511V511Z" />
<glyph unicode="&#xe5;" horiz-adv-x="551" d="M250 -7Q195 -7 150 18T79 89T52 193Q52 257 79 302T153 371T258 395Q314 395 361 363T429 280L425 267L430 385H459V0H426V125L433 109Q424 86 407 65T365 28T312 2T250 -7ZM256 22Q303 22 340 42T401 98T426 179V228Q418
267 394 298T334 347T256 366Q209 366 171 345T109 285T86 194Q86 146 109 107T171 45T256 22ZM207 513Q207 543 227 563T277 583Q308 583 327 563T347 513Q347 483 328 464T277 444Q247 444 227 463T207 513ZM229 513Q229 494 243 480T277 465Q296 465 310 479T324
513Q324 533 310 547T278 561Q258 561 244 547T229 513Z" />
<glyph unicode="&#xe6;" horiz-adv-x="770" d="M203 -11Q150 -11 117 5T68 48T52 103Q52 142 72 168T125 208T193 222Q245 222 292 199T365 134L357 114Q324 153 285 174T199 195Q174 195 149 186T107 157T90 106Q90 69 118 43T210 17Q229 17 254 21T304 36T344
65V172L368 161L369 53Q348 26 316 13T252 -6T203 -11ZM345 176V263Q345 305 331 326T293 355T242 363Q203 363 168 349T96 297L77 321Q108 353 149 373T245 394Q293 394 322 380T365 338T379 273V238L345 176ZM548 -7Q490 -7 444 19T372 91T345 194Q345 249 372
295T446 368T548 396Q615 396 660 357T727 257L385 122L375 148L697 276L689 264Q670 306 634 336T547 366Q499 366 461 343T401 282T378 195Q378 150 399 111T459 47T548 22Q582 22 612 34T666 68L685 43Q657 21 622 7T548 -7Z" />
<glyph unicode="&#xe7;" horiz-adv-x="427" d="M383 38Q357 16 324 5T255 -7Q198 -7 152 19T79 90T52 193Q52 250 79 295T152 366T253 393Q291 393 324 382T384 348L366 325Q344 342 316 353T255 365Q208 365 170 342T109 280T86 193Q86 146 108 107T170 45T257
22Q288 22 315 32T364 59L383 38ZM399 -173Q410 -184 429 -191T474 -199Q512 -199 535 -184T559 -141Q559 -116 540 -99T480 -81Q464 -81 443 -85T409 -95L394 -76L466 7L492 0L425 -83L409 -76Q420 -69 442 -64T485 -58Q535 -58 563 -79T591 -140Q591 -168 576
-186T535 -213T477 -222Q448 -222 424 -214T385 -192L399 -173Z" />
<glyph unicode="&#xe8;" horiz-adv-x="477" d="M255 -7Q197 -7 151 19T79 91T52 194Q52 249 79 295T153 368T256 396Q322 396 367 357T435 257L92 122L82 148L404 276L397 264Q378 306 342 336T254 366Q207 366 169 343T109 282T86 195Q86 150 107 111T166 47T256
22Q289 22 319 34T374 68L392 43Q365 21 330 7T255 -7ZM135 618H172L258 485H232L135 618Z" />
<glyph unicode="&#xe9;" horiz-adv-x="477" d="M255 -7Q197 -7 151 19T79 91T52 194Q52 249 79 295T153 368T256 396Q322 396 367 357T435 257L92 122L82 148L404 276L397 264Q378 306 342 336T254 366Q207 366 169 343T109 282T86 195Q86 150 107 111T166 47T256
22Q289 22 319 34T374 68L392 43Q365 21 330 7T255 -7ZM319 601L220 468H193L281 601H319Z" />
<glyph unicode="&#xea;" horiz-adv-x="477" d="M255 -7Q197 -7 151 19T79 91T52 194Q52 249 79 295T153 368T256 396Q322 396 367 357T435 257L92 122L82 148L404 276L397 264Q378 306 342 336T254 366Q207 366 169 343T109 282T86 195Q86 150 107 111T166 47T256
22Q289 22 319 34T374 68L392 43Q365 21 330 7T255 -7ZM348 740L234 869L251 871L136 740H102L241 896H242L382 740H348Z" />
<glyph unicode="&#xeb;" horiz-adv-x="477" d="M255 -7Q197 -7 151 19T79 91T52 194Q52 249 79 295T153 368T256 396Q322 396 367 357T435 257L92 122L82 148L404 276L397 264Q378 306 342 336T254 366Q207 366 169 343T109 282T86 195Q86 150 107 111T166 47T256
22Q289 22 319 34T374 68L392 43Q365 21 330 7T255 -7ZM127 511Q127 522 135 530T155 539Q166 539 174 531T183 510Q183 499 175 491T155 482Q144 482 136 490T127 511V511ZM298 511Q298 522 306 530T326 539Q336 539 345 531T354 510Q354 499 345 491T326 482Q315
482 307 490T298 511V511Z" />
<glyph unicode="&#xec;" horiz-adv-x="217" d="M91 385H125V0H91V385ZM2 614H39L125 481H99L2 614Z" />
<glyph unicode="&#xed;" horiz-adv-x="217" d="M91 385H125V0H91V385ZM186 853L87 720H60L148 853H186Z" />
<glyph unicode="&#xee;" horiz-adv-x="217" d="M91 385H125V0H91V385ZM472 737L358 866L375 868L260 737H226L365 893H366L506 737H472Z" />
<glyph unicode="&#xef;" horiz-adv-x="217" d="M91 385H125V0H91V385ZM250 507Q250 518 258 526T278 535Q289 535 297 527T306 506Q306 495 298 487T278 478Q267 478 259 486T250 507V507ZM421 507Q421 518 429 526T449 535Q459 535 468 527T477 506Q477 495 468
487T449 478Q438 478 430 486T421 507V507Z" />
<glyph unicode="&#xf0;" horiz-adv-x="511" d="M253 -7Q197 -7 152 19T79 90T52 194Q52 250 78 296T150 369T250 396Q284 396 312 385T364 356T404 314T430 267L421 253Q415 313 389 378T322 506T234 623T136 714L157 736Q214 694 268 633T365 500T433 353T459
209Q459 164 443 126T399 57T334 10T253 -7ZM255 22Q302 22 340 45T401 107T424 194Q424 241 401 280T340 342T255 366Q207 366 169 341T108 277T86 194Q86 146 108 107T169 45T255 22ZM338 684L157 566L143 588L324 704L338 684Z" />
<glyph unicode="&#xf1;" horiz-adv-x="500" d="M120 385L124 262L120 281Q136 334 183 364T288 394Q342 394 374 362T408 279V0H374V272Q373 310 349 336T279 364Q239 364 204 346T147 293T125 214V0H91V385H120ZM323 452Q294 452 276 466T243 498Q230 512 216
524T183 536Q171 536 159 528T138 501T127 447L104 448Q104 487 115 513T145 551T184 564Q211 564 228 550T261 518Q274 503 288 491T323 479Q343 479 358 498T375 569L398 568Q398 529 388 503T361 465T323 452Z" />
<glyph unicode="&#xf2;" horiz-adv-x="511" d="M52 194Q52 250 79 296T152 369T256 396Q313 396 359 369T432 296T459 194Q459 138 432 93T359 20T255 -7Q198 -7 152 19T79 90T52 194ZM86 194Q86 145 108 107T169 45T255 22Q302 22 340 45T401 106T424 194Q424
241 401 280T340 342T255 366Q207 366 169 341T108 277T86 194ZM150 618H187L273 485H247L150 618Z" />
<glyph unicode="&#xf3;" horiz-adv-x="511" d="M52 194Q52 250 79 296T152 369T256 396Q313 396 359 369T432 296T459 194Q459 138 432 93T359 20T255 -7Q198 -7 152 19T79 90T52 194ZM86 194Q86 145 108 107T169 45T255 22Q302 22 340 45T401 106T424 194Q424
241 401 280T340 342T255 366Q207 366 169 341T108 277T86 194ZM334 601L235 468H208L296 601H334Z" />
<glyph unicode="&#xf4;" horiz-adv-x="511" d="M52 194Q52 250 79 296T152 369T256 396Q313 396 359 369T432 296T459 194Q459 138 432 93T359 20T255 -7Q198 -7 152 19T79 90T52 194ZM86 194Q86 145 108 107T169 45T255 22Q302 22 340 45T401 106T424 194Q424
241 401 280T340 342T255 366Q207 366 169 341T108 277T86 194ZM363 740L249 869L266 871L151 740H117L256 896H257L397 740H363Z" />
<glyph unicode="&#xf5;" horiz-adv-x="511" d="M52 194Q52 250 79 296T152 369T256 396Q313 396 359 369T432 296T459 194Q459 138 432 93T359 20T255 -7Q198 -7 152 19T79 90T52 194ZM86 194Q86 145 108 107T169 45T255 22Q302 22 340 45T401 106T424 194Q424
241 401 280T340 342T255 366Q207 366 169 341T108 277T86 194ZM329 454Q300 454 282 468T249 500Q236 514 222 526T189 538Q177 538 165 530T144 503T133 449L110 450Q110 489 121 515T151 553T190 566Q217 566 234 552T267 520Q280 505 294 493T329 481Q349 481
364 500T381 571L404 570Q404 531 394 505T367 467T329 454Z" />
<glyph unicode="&#xf6;" horiz-adv-x="511" d="M52 194Q52 250 79 296T152 369T256 396Q313 396 359 369T432 296T459 194Q459 138 432 93T359 20T255 -7Q198 -7 152 19T79 90T52 194ZM86 194Q86 145 108 107T169 45T255 22Q302 22 340 45T401 106T424 194Q424
241 401 280T340 342T255 366Q207 366 169 341T108 277T86 194ZM142 511Q142 522 150 530T170 539Q181 539 189 531T198 510Q198 499 190 491T170 482Q159 482 151 490T142 511V511ZM313 511Q313 522 321 530T341 539Q351 539 360 531T369 510Q369 499 360 491T341
482Q330 482 322 490T313 511V511Z" />
<glyph unicode="&#xf7;" horiz-adv-x="502" d="M224 355Q224 366 232 374T252 383Q263 383 271 375T280 354Q280 343 272 335T252 327Q240 327 232 335T224 355V355ZM224 94Q224 106 232 114T252 123Q263 123 271 115T280 95Q280 82 272 74T252 66Q240 66 232
74T224 94V94ZM68 241H429V209H68V241Z" />
<glyph unicode="&#xf8;" horiz-adv-x="489" d="M417 376L94 -6L76 13L399 392L417 376ZM52 194Q52 250 79 296T152 369T256 396Q313 396 359 369T432 296T459 194Q459 138 432 93T359 20T255 -7Q198 -7 152 19T79 90T52 194ZM86 194Q86 145 108 107T169 45T255
22Q302 22 340 45T401 106T424 194Q424 241 401 280T340 342T255 366Q207 366 169 341T108 277T86 194Z" />
<glyph unicode="&#xf9;" horiz-adv-x="498" d="M212 -10Q157 -10 125 22T91 106V385H125V114Q127 75 151 49T222 20Q261 20 295 40T351 94T373 172V385H407V0H377L373 120L379 101Q369 70 344 45T284 5T212 -10ZM143 618H180L266 485H240L143 618Z" />
<glyph unicode="&#xfa;" horiz-adv-x="498" d="M212 -10Q157 -10 125 22T91 106V385H125V114Q127 75 151 49T222 20Q261 20 295 40T351 94T373 172V385H407V0H377L373 120L379 101Q369 70 344 45T284 5T212 -10ZM327 601L228 468H201L289 601H327Z" />
<glyph unicode="&#xfb;" horiz-adv-x="498" d="M212 -10Q157 -10 125 22T91 106V385H125V114Q127 75 151 49T222 20Q261 20 295 40T351 94T373 172V385H407V0H377L373 120L379 101Q369 70 344 45T284 5T212 -10ZM357 740L243 869L260 871L145 740H111L250 896H251L391
740H357Z" />
<glyph unicode="&#xfc;" horiz-adv-x="498" d="M212 -10Q157 -10 125 22T91 106V385H125V114Q127 75 151 49T222 20Q261 20 295 40T351 94T373 172V385H407V0H377L373 120L379 101Q369 70 344 45T284 5T212 -10ZM135 511Q135 522 143 530T163 539Q174 539 182
531T191 510Q191 499 183 491T163 482Q152 482 144 490T135 511V511ZM306 511Q306 522 314 530T334 539Q344 539 353 531T362 510Q362 499 353 491T334 482Q323 482 315 490T306 511V511Z" />
<glyph unicode="&#xfd;" horiz-adv-x="443" d="M127 -185L378 385H412L164 -185H127ZM212 -4L31 385H68L238 14L212 -4ZM301 853L202 720H175L263 853H301Z" />
<glyph unicode="&#xfe;" horiz-adv-x="532" d="M291 -7Q252 -7 215 8T150 51T113 112L117 135V-185H83V756H117V258L109 269Q121 306 150 334T217 378T295 395Q351 395 395 369T465 296T492 193Q492 135 465 90T393 19T291 -7ZM287 22Q334 22 373 45T435 106T458
193Q458 243 435 281T373 342T288 365Q241 365 203 343T142 285T117 202V175Q121 132 144 98T205 43T287 22Z" />
<glyph unicode="&#xff;" horiz-adv-x="443" d="M127 -185L378 385H412L164 -185H127ZM212 -4L31 385H68L238 14L212 -4ZM109 507Q109 518 117 526T137 535Q148 535 156 527T165 506Q165 495 157 487T137 478Q126 478 118 486T109 507V507ZM280 507Q280 518 288
526T308 535Q318 535 327 527T336 506Q336 495 327 487T308 478Q297 478 289 486T280 507V507Z" />
<glyph unicode="&#x2013;" horiz-adv-x="511" d="M101 208H402V176H101V208Z" />
<glyph unicode="&#x2014;" horiz-adv-x="703" d="M100 208H603V176H100V208Z" />
<glyph unicode="&#x2018;" horiz-adv-x="168" d="M105 717L122 697Q100 669 91 640T87 580L54 573Q48 602 53 628T71 676T105 717Z" />
<glyph unicode="&#x2019;" horiz-adv-x="170" d="M69 570L53 589Q74 609 84 640T87 707L121 714Q126 687 121 660T103 610T69 570V570Z" />
<glyph unicode="&#x201a;" horiz-adv-x="170" d="M69 -101L53 -82Q74 -62 84 -31T87 36L121 43Q126 16 121 -11T103 -61T69 -101V-101Z" />
<glyph unicode="&#x201c;" horiz-adv-x="244" d="M222 717L239 697Q217 669 208 640T204 580L171 573Q165 602 170 628T188 676T222 717ZM116 717L133 697Q111 669 102 640T98 580L65 573Q59 602 64 628T82 676T116 717Z" />
<glyph unicode="&#x201d;" horiz-adv-x="234" d="M69 570L53 589Q74 609 84 640T87 707L121 714Q126 687 121 660T103 610T69 570V570ZM155 570L139 589Q160 609 170 640T173 707L207 714Q212 687 207 660T189 610T155 570V570Z" />
<glyph unicode="&#x201e;" horiz-adv-x="262" d="M69 -112L53 -93Q74 -73 84 -42T87 25L121 32Q126 5 121 -22T103 -72T69 -112V-112ZM155 -112L139 -93Q160 -73 170 -42T173 25L207 32Q212 5 207 -22T189 -72T155 -112V-112Z" />
<glyph unicode="&#x2022;" horiz-adv-x="480" d="M159 301Q159 324 170 342T199 372T239 383Q263 383 281 372T311 343T322 301Q322 279 311 261T282 232T239 220Q217 220 200 231T171 261T159 301V301Z" />
<glyph unicode="&#x2039;" horiz-adv-x="387" d="M101 240Q113 251 128 264T159 293T193 324T226 354T258 382T285 408V373Q270 358 253 341T218 307T183 272T151 240Q166 225 183 208T218 173T253 138T285 104V71L101 240Z" />
<glyph unicode="&#x203a;" horiz-adv-x="385" d="M295 240Q283 251 269 264T238 293T204 324T170 354T138 382T111 408V373Q126 358 143 341T178 307T213 272T245 240Q230 225 213 208T178 173T143 138T111 104V71L295 240Z" />
</font>
</defs>
</svg>
