<?xml version="1.0" standalone="no"?>
<!DOCTYPE svg PUBLIC "-//W3C//DTD SVG 1.1//EN" "http://www.w3.org/Graphics/SVG/1.1/DTD/svg11.dtd">
<svg xmlns="http://www.w3.org/2000/svg">
<defs >
<font id="JosefinSans" horiz-adv-x="550" ><font-face
    font-family="Josefin Sans Thin Light"
    units-per-em="1000"
    panose-1="0 0 0 0 0 0 0 0 0 0"
    ascent="750"
    descent="-250"
    alphabetic="0" />
<glyph unicode=" " horiz-adv-x="300" />
<glyph unicode="!" horiz-adv-x="200" d="M148 728H191L120 149H77L148 728ZM70 10Q60 17 60 27T67 46Q74 54 84 55T105 51Q114 44 114 33T106 14Q98 5 89 5T70 10Z" />
<glyph unicode="&quot;" horiz-adv-x="312" d="M197 724Q189 661 180 599T163 474H122L152 724H197ZM331 724Q323 661 314 599T297 474H255L286 724H331Z" />
<glyph unicode="#" horiz-adv-x="574" d="M311 646Q298 594 285 542T259 436H400Q413 489 426 541T452 646H496Q483 594 470 542T444 436H566Q564 426 562 416T557 394H434Q425 359 417 324T400 253H522Q519 243 517 232T512 210H389Q377 158 365 106T339 0H295Q308
53 320 105T346 210H204Q192 158 180 106T154 0H110Q123 53 135 105T161 210H54Q56 221 59 232T64 253H171Q180 288 188 323T205 394H99Q101 405 103 415T108 436H215Q229 489 241 541T267 646H311ZM249 394Q240 359 232 324T215 253H356Q365 288 373 323T390 394H249Z"
/>
<glyph unicode="$" horiz-adv-x="572" d="M246 -68L299 368L302 393L349 775H382L334 383L331 356L279 -68H246ZM501 617Q470 634 424 650T330 668Q284 668 254 655T205 622T180 581T171 543Q170 508 191 482T248 437T323 398Q366 379 405 355T470 294T493 199Q492
166 478 130T436 62T364 12T258 -7Q206 -6 163 7T87 39T31 80L58 118Q79 98 110 80T180 50T260 37Q319 37 359 61T420 122T442 199Q443 242 421 271T364 322T290 360Q259 374 228 390T172 427T133 475T121 540Q123 593 151 631T226 690T329 711Q365 710 400 702T467
682T525 653L501 617Z" />
<glyph unicode="%" horiz-adv-x="779" d="M232 240Q220 240 200 244T160 260T127 299T113 371Q113 415 128 454T174 518T249 544Q258 544 276 540T314 524T348 485T362 414Q362 371 347 332T304 267T232 240ZM232 275Q262 276 281 297T310 350T320 412Q320 446
311 465T289 494T263 505T244 508Q213 507 194 486T165 434T156 372Q156 327 171 307T204 281T232 275ZM561 -4Q550 -4 531 0T493 17T460 56T447 125Q447 169 462 209T508 274T583 300Q594 300 613 296T651 278T683 238T696 168Q696 127 681 87T635 22T561 -4ZM564
31Q597 32 616 54T644 109T653 170Q653 214 638 233T606 258T579 264Q548 264 528 243T499 191T489 128Q489 83 504 63T537 37T564 31ZM636 546L221 -1L173 0L587 546H636Z" />
<glyph unicode="&amp;" horiz-adv-x="705" d="M584 0Q580 0 571 0T552 0T534 0T526 0L222 489Q213 503 206 519T194 554T191 590Q192 637 214 673T278 731T376 752Q423 752 460 735T522 695L494 662Q466 684 438 697T378 710Q311 710 277 674T242 587Q242 575
246 561T256 535T267 513L584 0ZM310 359Q277 361 242 350T177 317T128 262T109 189Q108 145 131 110T195 56T285 35Q325 35 360 47T423 79T465 125L493 92Q463 47 405 19T275 -8Q209 -7 159 20T81 92T56 191Q58 238 80 277T140 344T221 387T312 400L310 359ZM603
401H650L499 102L468 129L603 401Z" />
<glyph unicode="&apos;" horiz-adv-x="154" d="M191 724Q183 661 174 599T157 474H115L145 724H191Z" />
<glyph unicode="(" horiz-adv-x="344" d="M103 241Q106 326 126 402T179 544T251 661T329 750L357 720Q309 672 263 601T186 439T152 242Q150 161 163 89T200 -40T253 -138L217 -165Q185 -124 158 -63T115 76T103 241V241Z" />
<glyph unicode=")" horiz-adv-x="344" d="M265 345Q262 260 242 184T189 43T117 -75T39 -164L10 -134Q59 -85 105 -14T181 147T215 345Q218 426 205 498T168 628T115 725L151 751Q184 711 211 649T253 510T265 345V345Z" />
<glyph unicode="*" horiz-adv-x="335" d="M217 546Q191 532 165 518T113 490Q110 498 107 506T99 521Q126 535 152 549T204 576Q182 590 160 605T114 634Q118 641 123 647T132 661Q155 647 178 633T224 604L238 720H274Q270 691 267 662T258 604Q285 618 312 632T366
660Q369 653 372 647T379 633Q351 619 325 604T271 575V575Q294 561 317 547T363 518Q358 511 353 504T342 488Q319 502 296 517T250 546Q246 518 243 491T235 434H203L217 546Z" />
<glyph unicode="+" horiz-adv-x="546" d="M297 413H340L321 254H480L475 212H316L296 51H252L272 212H113L118 254H277L297 413Z" />
<glyph unicode="," horiz-adv-x="201" d="M26 -189L3 -170Q32 -151 45 -117T57 -42L101 -43Q103 -70 96 -98T72 -150T26 -189Z" />
<glyph unicode="-" horiz-adv-x="302" d="M81 222H266L261 180H76L81 222Z" />
<glyph unicode="." horiz-adv-x="164" d="M56 30Q56 46 68 57T95 68Q106 68 115 59T124 37Q124 27 119 19T104 5T86 0Q74 0 65 8T56 30V30Z" />
<glyph unicode="/" horiz-adv-x="348" d="M432 740Q338 550 245 361T59 -19H15Q109 171 201 360T388 740H432Z" />
<glyph unicode="0" horiz-adv-x="628" d="M293 -3Q230 0 184 26T107 96T63 199T56 323Q60 358 70 396T96 473T138 545T196 605T272 645T368 657Q430 654 477 628T555 555T598 450T603 324Q596 258 573 198T511 92T417 20T293 -3ZM298 43Q348 40 391 60T468 118T524
211T553 329Q562 418 538 480T468 575T361 611Q312 614 269 594T192 536T136 444T107 325Q99 237 122 175T191 79T298 43Z" />
<glyph unicode="1" horiz-adv-x="326" d="M120 653H267L186 0H137L211 606H114L120 653Z" />
<glyph unicode="2" horiz-adv-x="549" d="M60 0Q166 93 233 161T339 280T394 365T415 426T419 475Q419 525 399 555T347 600T277 615Q226 615 196 596T151 550T132 496T127 454Q127 426 133 403T153 361L121 334Q110 349 100 367T85 406T79 452Q79 478 86 513T114
582T174 638T279 661Q325 661 369 642T442 583T469 479Q468 441 457 401T415 312T323 196T164 37L145 47H484L478 0H60Z" />
<glyph unicode="3" horiz-adv-x="493" d="M437 653L222 379L183 393Q206 404 229 406T274 407Q323 406 361 385T423 325T446 232Q446 198 435 158T399 82T330 22T222 -6Q191 -7 158 -1T95 23T41 73L68 105Q99 66 139 53T219 41Q265 43 298 59T353 103T385 164T396
233Q396 294 355 330T246 370Q221 372 195 367T153 353L149 357L354 616L373 607H101L107 653H437Z" />
<glyph unicode="4" horiz-adv-x="509" d="M22 173V174L461 661H462L408 212H500L495 173H403L382 0H333L354 173H22ZM417 555L94 192L84 212H359L403 572L417 555Z" />
<glyph unicode="5" horiz-adv-x="528" d="M235 -7Q220 -7 192 -2T133 18T74 65L105 100Q126 73 151 61T198 45T234 41Q297 41 335 65T390 127T408 208Q408 244 396 273T361 323T311 356T250 370Q218 372 188 362T133 334L129 335L178 653H474L468 607H211L179
378L177 394Q194 403 220 407T270 411Q308 409 341 395T401 354T443 291T458 211Q458 185 449 149T415 77T348 18T235 -7Z" />
<glyph unicode="6" horiz-adv-x="536" d="M256 -7Q198 -7 152 19T79 92T52 197Q52 238 67 287T121 392T234 510T425 639L452 600Q364 557 299 508T192 409T132 312L120 323Q151 364 196 384T294 405Q331 405 365 392T425 353T467 292T483 214Q483 172 467 133T420
62T348 12T256 -7ZM257 37Q309 37 343 55T397 101T425 158T434 210Q434 254 413 288T356 343T274 364Q220 364 186 344T133 295T107 238T99 192Q99 149 119 114T176 58T257 37Z" />
<glyph unicode="7" horiz-adv-x="476" d="M492 653L132 0H68L412 618L438 607H72L78 653H492Z" />
<glyph unicode="8" horiz-adv-x="526" d="M48 188Q48 241 70 284T130 356T213 396Q179 413 160 445T144 516Q147 545 158 571T190 617T239 649T305 661Q351 661 385 643T437 593T456 523Q456 474 429 440T358 388Q392 375 419 350T463 291T480 214Q480 183 470
152T439 92T391 41T328 6T251 -7Q192 -7 146 19T74 90T48 188ZM97 191Q97 149 117 114T172 57T253 35Q301 35 342 59T407 124T432 212Q432 254 411 289T355 346T274 368Q224 368 184 344T121 279T97 191ZM190 513Q186 470 217 440T296 409Q339 409 363 428T398
473T408 518Q408 564 380 592T307 620Q262 620 230 592T190 513Z" />
<glyph unicode="9" horiz-adv-x="536" d="M257 225Q218 227 184 243T123 288T84 353T75 434Q79 475 97 512T147 578T220 623T311 637Q371 635 417 607T487 532T506 421Q500 352 467 293T382 183T263 86T123 -1L95 38Q188 85 255 133T364 227T422 311L442 298Q404
260 362 242T257 225ZM273 267Q350 263 398 301T458 427Q461 473 443 509T390 568T310 593Q261 596 221 574T155 516T125 435Q121 390 139 353T192 292T273 267Z" />
<glyph unicode=":" horiz-adv-x="176" d="M55 30Q55 46 67 57T94 68Q106 68 114 59T123 37Q123 27 118 19T104 5T86 0Q73 0 64 8T55 30V30ZM87 289Q87 305 99 316T126 327Q138 327 146 319T155 296Q155 286 150 278T136 264T118 259Q106 259 97 267T87 289V289Z" />
<glyph unicode=";" horiz-adv-x="202" d="M113 282Q113 293 118 301T133 314T151 319Q163 319 171 311T180 288Q180 272 168 262T142 251Q130 251 122 260T113 282V282ZM139 87Q111 35 83 -16T27 -121H-13Q13 -68 38 -17T90 87H139Z" />
<glyph unicode="&lt;" horiz-adv-x="647" d="M521 -15Q418 49 317 112T112 239Q230 303 347 366T583 493L576 436Q485 387 394 338T210 239Q290 190 369 141T528 43V43L521 -15Z" />
<glyph unicode="=" horiz-adv-x="712" d="M122 177H631L625 135H117L122 177ZM146 372H655L649 330H141L146 372Z" />
<glyph unicode="&gt;" horiz-adv-x="625" d="M107 43Q199 92 290 141T473 239Q394 289 314 338T155 436L162 493Q265 430 366 367T571 239Q453 176 336 113T100 -15V-15L107 43Z" />
<glyph unicode="?" horiz-adv-x="450" d="M205 262Q209 294 222 313T255 347T299 376T350 410Q391 442 411 479T431 557Q431 597 414 627T367 675T296 693Q257 693 225 680T168 641T128 581V581Q119 584 110 587T92 594Q104 620 123 645T168 690T227 723T301 736Q353
736 392 712T453 649T475 560Q475 499 443 453T355 369Q330 353 307 340T268 305T247 243L237 165H193L205 262ZM196 15Q185 15 176 23T167 45Q167 61 179 71T204 82Q215 82 224 74T234 52Q234 36 222 26T196 15V15Z" />
<glyph unicode="@" horiz-adv-x="982" d="M410 -212Q328 -212 261 -189T146 -120T72 -8T46 144Q46 199 64 262T121 386T221 498T369 579T570 610Q653 610 720 585T837 513T912 406T938 272Q938 217 921 166T875 76T805 14T718 -9Q680 -9 656 9T625 60T626 139L635
114Q618 82 587 54T519 9T441 -8Q387 -8 345 15T280 79T258 173Q258 235 287 287T367 371T481 403Q525 403 558 389T614 351T647 294L666 391H709L670 117Q668 97 671 78T687 47T727 34Q759 34 789 53T842 106T878 182T892 272Q892 356 851 423T737 531T563 571Q457
571 379 542T245 464T156 358T107 246T91 147Q91 69 113 10T178 -91T281 -152T417 -173Q478 -173 535 -154T643 -103L663 -133Q626 -158 584 -176T498 -203T410 -212ZM456 32Q495 32 531 50T595 102T630 178L638 234Q635 271 615 300T562 346T486 363Q439 363 398
338T333 271T308 178Q308 137 326 104T378 51T456 32Z" />
<glyph unicode="A" horiz-adv-x="706" d="M75 0H26L417 741H421L630 0H575L393 657L430 676L75 0ZM206 281H521L529 235H188L206 281Z" />
<glyph unicode="B" horiz-adv-x="590" d="M332 710Q425 710 475 676T526 561Q526 521 513 478T470 401T384 356L383 360Q420 354 450 335T500 284T519 208Q519 156 502 117T454 52T381 13T288 0H89L176 710H332ZM319 378Q369 378 400 397T447 443T469 499T475
547Q475 609 437 636T328 664H220L185 378H319ZM290 45Q354 45 393 68T451 128T470 208Q470 253 446 281T387 322T314 335H179L145 45H290Z" />
<glyph unicode="C" horiz-adv-x="697" d="M607 32Q585 21 557 11T497 -6T428 -12Q359 -12 298 11T189 77T115 181T88 320Q88 370 100 424T140 529T212 622T320 687T469 712Q532 712 585 694T679 646L653 603Q619 629 572 646T472 665Q383 666 320 636T216 556T157
445T138 323Q138 259 160 206T222 115T315 56T429 35Q461 35 489 41T543 56T589 76L607 32Z" />
<glyph unicode="D" horiz-adv-x="738" d="M89 0L176 710H339Q442 710 510 683T619 609T675 503T688 379Q686 288 654 217T567 98T441 25T286 0H89ZM143 47H290Q361 47 423 68T534 131T609 235T639 380Q641 443 625 494T573 583T482 641T351 662H218L143 47Z" />
<glyph unicode="E" horiz-adv-x="639" d="M176 710H614L608 664H220L185 380H534L528 334H179L145 47H547L541 0H89L176 710Z" />
<glyph unicode="F" horiz-adv-x="578" d="M176 710H573L567 663H220L184 371H492L486 324H178L139 0H89L176 710Z" />
<glyph unicode="G" horiz-adv-x="746" d="M633 35Q609 21 575 11T502 -6T428 -11Q373 -10 326 2T241 37T173 90T124 159T95 240T87 330Q90 384 106 439T154 543T233 631T341 691T481 712Q540 711 592 694T685 648L662 605Q626 631 578 647T479 663Q407 664 352
644T256 590T191 512T152 422T137 331Q136 283 147 241T182 162T240 100T318 57T416 37Q458 35 505 42T587 65L612 272H451L457 318H668L633 35Z" />
<glyph unicode="H" horiz-adv-x="753" d="M701 710L614 0H564L606 334H180L139 0H89L176 710H226L185 381H611L651 710H701Z" />
<glyph unicode="I" horiz-adv-x="278" d="M176 710H226L139 0H89L176 710Z" />
<glyph unicode="J" horiz-adv-x="332" d="M206 107Q197 28 161 -28T73 -113T-40 -145V-145L-34 -97Q14 -94 54 -70T122 -1T158 110L232 710H280L206 107Z" />
<glyph unicode="K" horiz-adv-x="655" d="M185 390L179 355L183 364L577 710H640L311 419L586 0H524L271 388L175 306L138 0H89L176 710H225L185 390Z" />
<glyph unicode="L" horiz-adv-x="578" d="M176 710H224L143 47H533L527 0H89L176 710Z" />
<glyph unicode="M" horiz-adv-x="909" d="M137 0H89L179 726H180L469 229L446 232L858 726H859L769 0H721L796 613L797 589L450 172H448L201 589L212 611L137 0Z" />
<glyph unicode="N" horiz-adv-x="824" d="M683 -17H681L200 618L212 624L136 0H89L178 725H180L662 86L649 85L725 710H772L683 -17Z" />
<glyph unicode="O" horiz-adv-x="865" d="M429 -7Q360 -7 298 16T189 84T115 189T88 328Q88 394 113 462T186 588T307 681T474 717Q543 717 605 694T714 626T788 520T815 381Q815 315 790 247T717 122T596 29T429 -7ZM430 40Q512 40 574 71T679 152T743 262T765
379Q765 438 743 490T682 583T589 647T472 670Q390 670 328 639T224 558T160 448T138 330Q138 271 159 219T220 126T313 63T430 40Z" />
<glyph unicode="P" d="M338 710Q374 710 409 700T474 668T520 613T537 532Q537 490 523 449T477 374T398 319T283 298H175L139 0H89L176 710H338ZM290 345Q347 345 384 364T444 411T476 471T486 526Q486 564 468 595T414 644T330 662H220L181 345H290Z" />
<glyph unicode="Q" horiz-adv-x="939" d="M608 38L861 48L855 0H521L608 38ZM473 -7Q404 -7 342 16T233 84T159 189T132 328Q132 394 157 462T230 588T351 681T518 717Q587 717 649 694T758 626T832 520T859 381Q859 315 834 247T761 122T640 29T473 -7ZM474 40Q556
40 618 71T723 152T787 262T809 379Q809 438 787 490T726 583T633 647T516 670Q434 670 372 639T268 558T204 448T182 330Q182 271 204 219T265 126T357 63T474 40Z" />
<glyph unicode="R" horiz-adv-x="633" d="M338 710Q377 710 415 699T482 663T527 600T536 509Q531 469 515 432T468 364T392 316T283 298H174L137 0H89L176 710H338ZM287 345Q358 345 400 370T462 433T486 507Q490 539 482 567T454 616T406 650T338 663H218L180
345H287ZM385 323L543 0H486L328 322L385 323Z" />
<glyph unicode="S" horiz-adv-x="543" d="M501 617Q470 634 424 650T330 668Q284 668 254 655T205 622T180 581T171 543Q170 508 191 482T248 437T323 398Q366 379 405 355T470 294T493 199Q492 166 478 130T436 62T364 12T258 -7Q206 -6 163 7T87 39T31 80L58
118Q79 98 110 80T180 50T260 37Q319 37 359 61T420 122T442 199Q443 242 421 271T364 322T290 360Q259 374 228 390T172 427T133 475T121 540Q123 593 151 631T226 690T329 711Q365 710 400 702T467 682T525 653L501 617Z" />
<glyph unicode="T" horiz-adv-x="577" d="M118 710H583L577 662H369L288 0H238L319 662H112L118 710Z" />
<glyph unicode="U" horiz-adv-x="717" d="M169 240Q161 178 180 133T241 64T338 39Q399 39 445 63T521 133T557 240L614 710H664L607 237Q597 160 561 105T467 21T332 -8V-8Q263 -8 212 21T135 105T118 237L176 710H226L169 240Z" />
<glyph unicode="V" horiz-adv-x="694" d="M319 -29L108 710H165L346 54L319 58L656 710H712L321 -29H319Z" />
<glyph unicode="W" horiz-adv-x="985" d="M108 708H164L320 69L310 72L507 469L523 406L298 -33L108 708ZM436 708H485L650 69L636 73L951 708H1003L628 -32L436 708Z" />
<glyph unicode="X" horiz-adv-x="608" d="M112 710H172L548 0H486L112 710ZM15 0L299 375L322 332L75 0H15ZM325 391L561 710H621L349 352L325 391Z" />
<glyph unicode="Y" horiz-adv-x="661" d="M312 253L104 710H162L351 294L334 293L623 710H684L362 253L331 0H281L312 253Z" />
<glyph unicode="Z" horiz-adv-x="641" d="M11 0L579 676L588 663H188Q169 663 155 668T133 684T128 714L132 745H179L177 733Q176 723 182 717T205 710H663L97 39L92 47H606L600 0H11Z" />
<glyph unicode="[" horiz-adv-x="352" d="M182 750H358L353 707H221L121 -107H253L248 -150H71L182 750Z" />
<glyph unicode="\" horiz-adv-x="349" d="M148 740Q195 550 241 361T334 -19H286Q240 171 194 360T100 740H148Z" />
<glyph unicode="]" horiz-adv-x="385" d="M162 750H338L228 -150H51L57 -107H189L288 707H157L162 750Z" />
<glyph unicode="^" horiz-adv-x="472" d="M379 482Q369 501 357 522T332 566T308 607Q293 588 275 566T239 523T206 482H172Q207 527 243 572T315 663V663Q340 618 364 573T413 482H379Z" />
<glyph unicode="_" horiz-adv-x="603" d="M106 42H508L503 0H101L106 42Z" />
<glyph unicode="`" horiz-adv-x="201" d="M106 615L176 482H142L53 615H106Z" />
<glyph unicode="a" horiz-adv-x="561" d="M232 -6Q182 -6 141 18T75 85T50 183Q50 218 62 256T101 327T168 382T266 403Q312 403 347 388T406 346T442 286L433 272L454 391H495L448 0H401L415 114L422 96Q412 78 394 60T351 26T297 3T232 -6ZM255 33Q295 33 330
50T389 98T422 169L428 226Q425 265 404 296T349 345T272 363Q224 363 191 345T138 300T108 242T99 188Q99 145 119 110T174 54T255 33Z" />
<glyph unicode="b" horiz-adv-x="564" d="M294 -7Q228 -7 181 27T115 113L128 136L112 0H65L158 760H205L147 284L143 307Q170 349 218 375T324 402Q380 402 422 379T489 313T513 211Q513 157 490 107T419 25T294 -7ZM292 34Q341 34 374 50T427 93T455 150T464
208Q464 253 446 288T394 343T309 364Q251 364 205 330T142 242L133 175Q135 159 143 136T169 89T217 50T292 34Z" />
<glyph unicode="c" horiz-adv-x="436" d="M372 28Q345 11 313 1T247 -9Q210 -9 175 4T112 41T67 100T50 181Q50 223 66 262T111 331T179 380T266 398Q313 398 350 384T412 343L383 312Q364 332 334 345T269 358Q224 358 185 335T122 272T98 183Q98 141 118 107T173
52T254 31Q281 31 305 39T350 60L372 28Z" />
<glyph unicode="d" horiz-adv-x="564" d="M233 -5Q177 -3 134 25T69 100T51 201Q55 245 73 283T123 348T194 390T280 403Q342 400 387 366T451 284L436 269L496 760H544L449 0H402L416 113L424 94Q393 48 343 20T233 -5ZM245 35Q288 33 325 50T389 99T424 173L430
224Q427 262 408 293T356 343T283 364Q236 367 196 348T130 293T99 206Q95 160 113 122T165 61T245 35Z" />
<glyph unicode="e" horiz-adv-x="488" d="M252 33Q281 33 309 43T359 70L379 34Q351 15 317 4T248 -7Q190 -7 145 17T75 85T50 186Q50 228 66 266T111 335T180 384T269 402Q304 402 334 392T388 363T428 313T453 244L96 133L88 169L419 271L401 257Q388 301 354
332T268 363Q220 363 181 340T120 277T97 191Q97 146 117 111T172 54T252 33Z" />
<glyph unicode="f" horiz-adv-x="324" d="M91 0L133 347H66L71 390H138L162 587Q173 681 211 722T313 764Q327 764 342 761T371 749L346 715Q340 720 332 722T313 725Q270 725 245 695T210 588L185 390H316L311 347H180L138 0H91Z" />
<glyph unicode="g" horiz-adv-x="565" d="M237 -190Q201 -190 169 -183T107 -157T44 -102L76 -71Q105 -104 132 -120T187 -142T240 -148Q294 -148 327 -130T379 -82T402 -13L418 114L428 105Q405 53 354 23T241 -7Q186 -7 143 18T75 87T50 188Q50 217 62 253T99
324T166 380T267 402Q333 402 381 371T446 290L435 273L459 391H500L449 -20Q444 -67 420 -105T350 -167T237 -190ZM275 363Q224 363 190 345T136 298T107 241T98 188Q98 144 118 109T173 54T254 33Q295 33 331 51T392 99T425 167L432 225Q429 264 408 295T352
345T275 363Z" />
<glyph unicode="h" horiz-adv-x="512" d="M145 305Q171 347 218 374T324 402Q380 402 409 370T434 285L399 0H352L385 276Q388 311 369 335T309 360Q267 360 230 341T169 287T138 209L112 0H65L158 760H205L147 289L145 305Z" />
<glyph unicode="i" horiz-adv-x="225" d="M113 391H160L112 0H65L113 391ZM374 1027Q375 1041 387 1051T414 1060Q427 1060 436 1051T444 1027Q443 1012 431 1003T405 993Q392 994 383 1004T374 1027Z" />
<glyph unicode="j" horiz-adv-x="236" d="M-27 -169Q15 -144 39 -107T72 -18L124 391H171L123 0Q114 -72 83 -123T-5 -199L-27 -169ZM378 1027Q379 1041 391 1051T418 1060Q431 1060 440 1051T448 1027Q447 1012 435 1003T409 993Q396 994 387 1004T378 1027Z" />
<glyph unicode="k" horiz-adv-x="451" d="M65 0L158 760H206L112 0H65ZM233 254L384 0H329L197 228L233 254ZM113 142L109 189L374 399L406 374L113 142Z" />
<glyph unicode="l" horiz-adv-x="226" d="M158 760H206L112 0H65L158 760Z" />
<glyph unicode="m" horiz-adv-x="788" d="M154 391L146 286L142 303Q171 348 218 375T322 402Q370 402 398 378T430 312L426 308Q455 351 501 376T601 402Q657 402 685 370T709 285L675 0H627L661 275Q664 310 647 334T589 360Q548 360 512 341T451 288T420 214L394
0H346L380 275Q383 310 365 334T307 360Q266 360 230 340T169 286T138 210L112 0H65L113 391H154Z" />
<glyph unicode="n" horiz-adv-x="512" d="M154 391L149 291L140 301Q166 346 213 374T320 402Q379 402 409 370T434 285L399 0H352L385 273Q390 311 368 335T301 360Q260 360 225 341T166 287T138 209L112 0H65L113 391H154Z" />
<glyph unicode="o" horiz-adv-x="519" d="M248 -8Q209 -8 173 5T110 44T66 104T50 183Q50 221 63 259T102 330T170 382T270 402Q325 402 369 378T441 312T468 212Q468 184 460 153T436 94T394 42T332 6T248 -8ZM250 32Q309 32 346 59T402 127T420 209Q420 244
408 272T375 320T326 351T268 362Q210 362 172 336T116 268T98 185Q98 140 118 106T174 52T250 32Z" />
<glyph unicode="p" horiz-adv-x="558" d="M275 -8Q217 -8 171 22T109 99L122 111L89 -188H42L113 394H155L143 266L132 295Q164 342 218 372T329 403Q381 403 421 380T485 317T509 225Q509 162 478 109T394 24T275 -8ZM275 33Q326 33 368 58T436 126T461 218Q461
260 442 293T390 345T315 364Q272 364 235 345T172 294T137 218L131 175Q131 157 137 133T160 86T205 48T275 33Z" />
<glyph unicode="q" horiz-adv-x="559" d="M229 -7Q180 -7 139 16T74 80T49 174Q49 220 66 261T115 334T188 384T275 403Q340 403 384 371T444 292L432 271L449 391H494L423 -188H376L412 116L428 103Q417 83 398 64T353 28T296 3T229 -7ZM241 32Q283 32 320 51T383
102T420 176L426 218Q426 238 420 262T397 310T352 348T281 363Q230 363 188 338T121 270T95 176Q95 135 114 103T166 51T241 32Z" />
<glyph unicode="r" horiz-adv-x="343" d="M154 391L143 287Q161 324 190 349T255 388T324 402L317 356Q272 356 233 336T169 283T138 207L112 0H65L113 391H154Z" />
<glyph unicode="s" horiz-adv-x="369" d="M170 -8Q148 -8 122 -3T73 16T32 54L57 83Q71 64 89 53T129 36T170 31Q212 31 234 55T257 103Q257 129 243 144T208 169T163 188Q126 203 102 226T77 287Q77 307 85 326T109 362T148 389T201 399Q209 399 230 396T276
383T321 348L297 316Q279 343 252 351T201 360Q177 360 160 350T135 325T126 296Q127 275 138 261T167 238T205 220Q231 209 253 196T290 163T305 108Q305 94 299 75T278 36T237 5T170 -8Z" />
<glyph unicode="t" horiz-adv-x="325" d="M172 563H220L198 386H320L315 347H193L151 0H104L146 347H62L67 386H151L172 563Z" />
<glyph unicode="u" horiz-adv-x="509" d="M187 -11Q133 -11 103 20T78 103L113 391H160L126 115Q122 81 143 57T207 30Q246 30 281 50T341 104T371 183L397 391H444L396 0H354L364 110L369 99Q355 69 327 44T262 4T187 -11Z" />
<glyph unicode="v" horiz-adv-x="455" d="M200 -15L51 391H106L224 42L196 43L396 391H449L205 -15H200Z" />
<glyph unicode="w" horiz-adv-x="666" d="M425 -20L334 257L187 -19H183L51 391H98L206 57L189 62L319 302L289 391H332L438 63L427 62L612 391H660L429 -20H425Z" />
<glyph unicode="x" horiz-adv-x="396" d="M366 0H310L66 391H124L366 0ZM218 224L353 391H407L237 189L218 224ZM214 168L75 0H22L192 201L214 168Z" />
<glyph unicode="y" horiz-adv-x="449" d="M87 -188L412 391H462L139 -188H87ZM200 -4L64 391H117L240 21L200 -4Z" />
<glyph unicode="z" horiz-adv-x="404" d="M125 351Q93 351 78 364T65 409L67 428H104V416Q103 404 109 398T133 391H386L87 30L76 40H339L334 0H12L313 366L321 351H125Z" />
<glyph unicode="{" horiz-adv-x="302" d="M287 707Q267 707 254 698T234 665T221 599L204 457Q198 404 184 373T153 326T119 300Q133 291 146 275T165 228T165 144L148 2Q143 -39 144 -63T156 -97T187 -107H239L234 -149H185Q164 -149 146 -147T116 -134T100 -93T103
-10L121 140Q125 167 123 198T106 251T58 275V275L64 324Q97 326 117 348T147 401T160 460L181 631Q187 677 198 702T225 737T258 748T296 750H344L339 707H287Z" />
<glyph unicode="|" horiz-adv-x="269" d="M181 704H225L110 -233H66L181 704Z" />
<glyph unicode="}" horiz-adv-x="335" d="M110 -107Q131 -107 143 -97T162 -63T175 2L195 166Q201 209 215 236T247 278T278 300Q264 310 251 326T231 373T231 457L248 599Q254 641 253 664T241 697T210 707H158L163 750H211Q231 750 248 749T279 737T297 703T296
631L278 480Q276 462 275 436T277 385T296 343T338 324V324L332 275Q304 274 286 257T257 214T241 163T233 119L215 -31Q209 -77 198 -102T172 -136T139 -147T101 -149H53L58 -107H110Z" />
<glyph unicode="~" horiz-adv-x="479" d="M279 445Q248 447 230 463T197 498Q186 513 174 526T142 540Q130 541 117 533T93 505T76 452L44 456Q49 497 64 524T101 566T148 578Q177 577 194 561T224 525Q236 509 249 496T282 482Q296 481 308 489T330 517T344 570L376
567Q372 525 358 498T324 457T279 445Z" />
<glyph unicode="&#xa0;" horiz-adv-x="300" />
<glyph unicode="&#xa1;" horiz-adv-x="200" d="M88 -185H45L116 394H159L88 -185ZM166 533Q176 526 176 516T169 497Q162 489 152 488T131 492Q122 500 122 510T130 529Q138 538 147 538T166 533Z" />
<glyph unicode="&#xa2;" horiz-adv-x="436" d="M270 456H303L239 -68H206L270 456ZM372 28Q345 11 313 1T247 -9Q210 -9 175 4T112 41T67 100T50 181Q50 223 66 262T111 331T179 380T266 398Q313 398 350 384T412 343L383 312Q364 332 334 345T269 358Q224 358
185 335T122 272T98 183Q98 141 118 107T173 52T254 31Q281 31 305 39T350 60L372 28Z" />
<glyph unicode="&#xa3;" horiz-adv-x="570" d="M331 350L325 302H78L84 350H331ZM169 516Q175 563 201 595T271 644T367 661Q436 661 473 636T526 567L488 543Q478 565 464 581T427 605T362 614Q312 614 282 600T236 560T217 504L174 161L172 138Q171 129 167
111T156 75T138 47H131H365Q415 47 438 57T464 96L471 147H514L509 98Q506 72 496 50T458 14T372 0H9L15 47H60Q83 47 95 58T114 97T128 177L169 516Z" />
<glyph unicode="&#xa4;" horiz-adv-x="502" d="M407 443Q417 427 422 408T426 368Q425 340 414 316T383 271L415 234L390 212Q382 222 374 231T357 249Q317 221 269 221Q245 222 224 230T188 251V251L147 215L126 239L167 275Q156 291 151 311T146 353V353Q147
381 157 404T186 448Q179 457 172 465T157 483L182 504L212 470Q232 484 255 492T303 501Q328 500 349 491T386 467V467L425 500L445 477L407 443ZM178 353Q177 312 204 283T273 253Q305 253 332 268T376 309T394 368Q395 410 368 439T299 469Q268 469 241 454T196
412T178 353V353Z" />
<glyph unicode="&#xa5;" horiz-adv-x="661" d="M160 287H506L502 247H156L160 287ZM156 131H501L497 90H152L156 131ZM316 285L104 710H162L355 326L338 324L623 710H684L366 285L331 0H281L316 285Z" />
<glyph unicode="&#xa6;" horiz-adv-x="216" d="M103 118H146L103 -234H60L103 118ZM175 704H219L175 352H132L175 704Z" />
<glyph unicode="&#xa7;" horiz-adv-x="565" d="M349 130L336 148Q374 138 404 120T450 72T461 -1Q455 -48 422 -84T338 -140T226 -156Q175 -153 134 -138T63 -104T17 -70L46 -32Q67 -50 95 -68T158 -98T227 -112Q270 -114 310 -103T377 -66T409 -2Q414 36 394
60T338 99T261 127Q228 139 195 153T137 186T98 234T89 302Q95 350 124 383T197 432T288 445L282 429Q241 444 210 465T164 517T152 588Q157 626 185 658T259 710T365 725Q409 722 457 706T539 667L513 631Q485 651 446 665T365 683Q318 686 283 673T227 638T203
589Q199 552 217 529T272 489T354 458Q388 447 420 433T478 400T517 351T525 281Q518 221 470 180T349 130ZM476 277Q482 316 461 342T402 387T321 418Q244 423 195 392T138 309Q133 267 154 241T216 197T312 159Q344 160 380 173T444 213T476 277Z" />
<glyph unicode="&#xa8;" horiz-adv-x="372" d="M118 514Q119 528 130 537T154 547Q167 546 176 536T185 512Q184 497 173 488T149 479Q136 479 127 489T118 514V514ZM292 514Q293 528 304 537T328 547Q341 546 350 536T359 512Q358 497 347 488T323 479Q310 479
301 489T292 514V514Z" />
<glyph unicode="&#xa9;" horiz-adv-x="816" d="M525 215Q503 202 475 193T414 185Q365 189 330 215T278 281T267 367Q273 417 301 455T370 514T460 532Q485 531 510 523T554 499L530 463Q514 477 496 483T457 490Q424 492 394 476T342 432T315 365Q311 329 323
299T362 250T425 228Q447 227 468 232T507 249L525 215ZM393 68Q332 72 282 96T198 162T147 258T138 374Q146 436 175 487T248 575T347 630T463 645Q523 641 573 617T658 551T709 455T717 338Q710 277 683 226T612 138T513 83T393 68ZM397 109Q466 105 526 133T626
216T674 340Q684 412 658 470T579 565T457 605Q389 610 329 581T229 497T180 371Q172 300 195 242T269 149T397 109Z" />
<glyph unicode="&#xaa;" horiz-adv-x="410" d="M207 417Q168 417 139 435T94 487T84 564Q90 611 113 644T170 694T242 712Q285 712 314 692T354 637L365 705H399L365 422H327L338 508L340 496Q330 476 310 458T264 429T207 417ZM220 449Q250 449 276 462T320 499T343
552L348 589Q344 627 317 653T248 680Q202 680 166 649T123 565Q119 533 130 507T165 465T220 449Z" />
<glyph unicode="&#xab;" horiz-adv-x="604" d="M147 240Q159 250 174 264T207 294T243 326T279 359T312 389T340 413L334 363Q319 350 303 334T269 302T235 270T203 240Q214 227 227 211T253 178T279 146T303 116L297 67L147 240ZM319 240Q331 250 346 264T379
294T415 326T451 359T484 389T512 413L506 363Q491 350 475 334T441 302T407 270T375 240Q386 227 399 211T425 178T451 146T475 116L469 67L319 240Z" />
<glyph unicode="&#xac;" horiz-adv-x="535" d="M113 264H474L458 133H409L419 217H106L113 264Z" />
<glyph unicode="&#xad;" horiz-adv-x="600" d="M81 222H266L261 180H76L81 222Z" />
<glyph unicode="&#xae;" horiz-adv-x="406" d="M225 376Q179 379 144 402T92 465T80 551Q86 599 112 635T179 690T265 706Q312 703 347 680T399 618T411 531Q406 484 379 448T312 393T225 376ZM228 406Q266 404 298 419T353 465T379 533Q384 572 370 603T328 655T262
677Q225 679 193 663T139 618T112 549Q107 511 121 479T163 428T228 406ZM198 640L258 637Q283 637 299 622T311 577Q309 552 294 538T246 524L213 525L205 457H175L198 640ZM240 548Q260 547 269 555T281 578Q283 595 273 602T251 611L226 613L218 549L240 548ZM271
529L301 453L268 454L240 530L271 529Z" />
<glyph unicode="&#xaf;" horiz-adv-x="401" d="M149 519H380L377 489H145L149 519Z" />
<glyph unicode="&#xb0;" horiz-adv-x="283" d="M101 558Q102 585 115 605T151 638T200 650Q235 649 256 626T276 567Q275 541 261 520T226 488T178 476Q143 477 122 500T101 558V558ZM182 506Q208 506 226 523T246 566Q247 589 233 604T196 619Q171 620 152 603T132
559Q131 537 145 522T182 506V506Z" />
<glyph unicode="&#xb1;" horiz-adv-x="527" d="M316 574H360L340 415H499L495 372H336L315 212H272L292 372H133L137 415H296L316 574ZM106 159H468L463 116H101L106 159Z" />
<glyph unicode="&#xb2;" horiz-adv-x="399" d="M147 648Q158 662 175 673T212 691T253 698Q304 697 331 670T351 589Q347 556 326 525T274 464T210 407T147 354L153 386H341L336 346H108L111 368Q143 393 175 419T234 473T280 527T301 579Q306 622 288 639T238
657Q212 657 193 646T160 619L147 648Z" />
<glyph unicode="&#xb3;" horiz-adv-x="404" d="M185 345Q150 345 128 359T93 388L112 416Q118 408 128 399T152 384T185 379Q223 380 248 404T277 465Q282 501 262 519T210 538Q189 538 176 535T150 526L148 531L267 671L279 659H136L141 695H325L200 541L168
546Q179 554 195 559T230 565Q255 566 277 554T312 518T321 464Q317 430 299 403T251 361T185 345Z" />
<glyph unicode="&#xb4;" horiz-adv-x="243" d="M295 615L178 482H144L243 615H295Z" />
<glyph unicode="&#xb5;" horiz-adv-x="509" d="M187 -11Q141 -11 113 13T80 78L119 103L82 -201H41L79 109L113 391H160L127 120Q124 82 143 57T207 30Q246 30 281 50T341 104T371 183L397 391H444L396 0H354L363 99Q349 69 322 44T260 4T187 -11Z" />
<glyph unicode="&#xb6;" horiz-adv-x="516" d="M254 425Q212 425 180 444T129 497T110 572Q110 622 135 663T203 729T295 754H502L409 0H366L454 712H333L245 0H202L254 425Z" />
<glyph unicode="&#xb7;" horiz-adv-x="184" d="M89 279Q89 295 101 306T128 317Q139 317 148 308T157 286Q157 276 152 268T137 254T119 249Q107 249 98 257T89 279V279Z" />
<glyph unicode="&#xb8;" horiz-adv-x="454" d="M124 -165Q134 -177 151 -185T194 -196Q229 -197 253 -185T282 -146Q285 -122 269 -105T213 -85Q197 -84 176 -87T142 -95L130 -68L209 4L245 -2L167 -82L151 -69Q163 -64 184 -60T226 -58Q276 -60 302 -83T324 -148Q321
-176 303 -194T256 -219T195 -225Q164 -223 141 -213T105 -188L124 -165Z" />
<glyph unicode="&#xb9;" horiz-adv-x="259" d="M122 658H218L179 328H133L168 615H118L122 658Z" />
<glyph unicode="&#xba;" horiz-adv-x="381" d="M86 570Q91 612 114 644T174 694T253 709Q296 707 327 685T374 628T385 551Q380 510 356 478T296 428T217 413Q175 416 144 436T97 492T86 570ZM124 567Q121 536 132 509T167 466T221 447Q252 445 279 459T324 497T346
553Q350 585 339 612T304 656T249 675Q217 677 190 663T146 623T124 567Z" />
<glyph unicode="&#xbb;" horiz-adv-x="604" d="M432 240Q420 250 405 264T372 294T336 326T300 359T267 389T239 413L245 363Q260 350 276 334T310 302T344 270T376 240Q365 227 352 211T326 178T300 146T276 116L282 67L432 240ZM260 240Q248 250 233 264T200
294T164 326T128 359T95 389T67 413L73 363Q88 350 104 334T138 302T172 270T204 240Q193 227 180 211T154 178T128 146T104 116L110 67L260 240Z" />
<glyph unicode="&#xbc;" horiz-adv-x="807" d="M618 758Q524 569 432 380T245 0H201Q295 190 388 379T575 758H618ZM122 658H218L179 328H133L168 615H118L122 658ZM745 137L741 107H492L494 122L704 341H730L688 2H646L682 289L692 285L533 121L527 137H745Z" />
<glyph unicode="&#xbd;" horiz-adv-x="807" d="M129 658H225L186 328H140L175 615H125L129 658ZM591 759Q497 569 405 380T218 0H174Q268 190 361 379T548 759H591ZM501 302Q512 316 529 327T566 345T607 352Q658 351 685 324T705 243Q701 210 680 179T628 118T564
61T501 8L507 40H695L690 0H462L465 22Q497 47 529 73T588 127T634 181T655 233Q660 276 642 293T592 311Q566 311 547 300T514 273L501 302Z" />
<glyph unicode="&#xbe;" horiz-adv-x="793" d="M422 345Q387 345 365 359T330 388L349 416Q355 408 365 399T389 384T422 379Q460 380 485 404T514 465Q519 501 499 519T447 538Q426 538 413 535T387 526L385 531L504 671L516 659H373L378 695H562L437 541L405
546Q416 554 432 559T467 565Q492 566 514 554T549 518T558 464Q554 430 536 403T488 361T422 345ZM625 759Q531 569 439 380T252 0H208Q302 190 395 379T582 759H625ZM731 135L727 105H478L480 120L690 339H716L674 0H632L668 287L678 283L519 119L513 135H731Z"
/>
<glyph unicode="&#xbf;" horiz-adv-x="419" d="M292 277Q288 246 275 226T242 192T198 163T147 129Q106 97 86 60T66 -18Q66 -57 83 -88T130 -136T201 -154Q240 -154 272 -141T329 -102T369 -42V-42Q378 -45 387 -48T405 -55Q393 -81 374 -106T329 -151T270 -184T196
-197Q145 -197 106 -173T44 -109T22 -21Q22 41 54 87T142 170Q167 187 190 200T229 234T250 296L260 374H304L292 277ZM301 524Q312 524 321 516T330 494Q330 478 318 468T293 457Q282 457 273 465T263 487Q263 504 275 514T301 524V524Z" />
<glyph unicode="&#xc0;" horiz-adv-x="706" d="M75 0H26L417 741H421L630 0H575L393 657L430 676L75 0ZM206 281H521L529 235H188L206 281ZM378 955L448 822H414L325 955H378Z" />
<glyph unicode="&#xc1;" horiz-adv-x="706" d="M75 0H26L417 741H421L630 0H575L393 657L430 676L75 0ZM206 281H521L529 235H188L206 281ZM567 955L450 822H416L515 955H567Z" />
<glyph unicode="&#xc2;" horiz-adv-x="706" d="M75 0H26L417 741H421L630 0H575L393 657L430 676L75 0ZM206 281H521L529 235H188L206 281ZM518 822L435 959L451 962L333 822H288L447 1003V1003L563 822H518Z" />
<glyph unicode="&#xc3;" horiz-adv-x="706" d="M75 0H26L417 741H421L630 0H575L393 657L430 676L75 0ZM206 281H521L529 235H188L206 281ZM508 786Q477 788 459 804T426 839Q415 854 403 867T371 881Q359 882 346 874T322 846T305 793L273 797Q278 838 293 865T331
907T377 919Q406 918 423 902T453 866Q465 850 478 837T511 823Q525 822 537 830T559 858T573 911L605 908Q601 866 587 839T553 798T508 786Z" />
<glyph unicode="&#xc4;" horiz-adv-x="706" d="M75 0H26L417 741H421L630 0H575L393 657L430 676L75 0ZM206 281H521L529 235H188L206 281ZM316 854Q317 868 328 877T352 887Q365 886 374 876T383 852Q382 837 371 828T347 819Q334 819 325 829T316 854V854ZM490
854Q491 868 502 877T526 887Q539 886 548 876T557 852Q556 837 545 828T521 819Q508 819 499 829T490 854V854Z" />
<glyph unicode="&#xc5;" horiz-adv-x="706" d="M75 0H26L417 741H421L630 0H575L393 657L430 676L75 0ZM206 281H521L529 235H188L206 281ZM359 833Q361 869 384 889T441 909Q473 908 493 888T512 837Q511 801 487 781T430 761Q398 762 378 782T359 833ZM389 833Q389
814 401 801T432 787Q452 787 466 800T482 835Q483 855 471 868T440 881Q421 882 406 869T389 833Z" />
<glyph unicode="&#xc6;" horiz-adv-x="934" d="M531 710H909L903 662H574L539 380H829L823 333H534L499 47H842L836 0H444L531 710ZM539 664Q536 657 532 649T526 635L51 0H-4L531 710L539 664ZM195 236H484L479 196H179L195 236Z" />
<glyph unicode="&#xc7;" horiz-adv-x="697" d="M607 32Q585 21 557 11T497 -6T428 -12Q359 -12 298 11T189 77T115 181T88 320Q88 370 100 424T140 529T212 622T320 687T469 712Q532 712 585 694T679 646L653 603Q619 629 572 646T472 665Q383 666 320 636T216
556T157 445T138 323Q138 259 160 206T222 115T315 56T429 35Q461 35 489 41T543 56T589 76L607 32ZM322 -168Q332 -180 349 -188T392 -199Q427 -200 451 -188T480 -149Q483 -125 467 -108T411 -88Q395 -87 374 -90T340 -98L328 -71L407 1L443 -5L365 -85L349 -72Q361
-67 382 -63T424 -61Q474 -63 500 -86T522 -151Q519 -179 501 -197T454 -222T393 -228Q362 -226 339 -216T303 -191L322 -168Z" />
<glyph unicode="&#xc8;" horiz-adv-x="639" d="M176 710H614L608 664H220L185 380H534L528 334H179L145 47H547L541 0H89L176 710ZM340 932L410 799H376L287 932H340Z" />
<glyph unicode="&#xc9;" horiz-adv-x="639" d="M176 710H614L608 664H220L185 380H534L528 334H179L145 47H547L541 0H89L176 710ZM529 932L412 799H378L477 932H529Z" />
<glyph unicode="&#xca;" horiz-adv-x="639" d="M176 710H614L608 664H220L185 380H534L528 334H179L145 47H547L541 0H89L176 710ZM480 799L397 936L413 939L295 799H250L409 980V980L525 799H480Z" />
<glyph unicode="&#xcb;" horiz-adv-x="639" d="M176 710H614L608 664H220L185 380H534L528 334H179L145 47H547L541 0H89L176 710ZM278 831Q279 845 290 854T314 864Q327 863 336 853T345 829Q344 814 333 805T309 796Q296 796 287 806T278 831V831ZM452 831Q453
845 464 854T488 864Q501 863 510 853T519 829Q518 814 507 805T483 796Q470 796 461 806T452 831V831Z" />
<glyph unicode="&#xcc;" horiz-adv-x="278" d="M176 710H226L139 0H89L176 710ZM157 932L227 799H193L104 932H157Z" />
<glyph unicode="&#xcd;" horiz-adv-x="278" d="M176 710H226L139 0H89L176 710ZM346 932L229 799H195L294 932H346Z" />
<glyph unicode="&#xce;" horiz-adv-x="278" d="M176 710H226L139 0H89L176 710ZM297 799L214 936L230 939L112 799H67L226 980V980L342 799H297Z" />
<glyph unicode="&#xcf;" horiz-adv-x="278" d="M176 710H226L139 0H89L176 710ZM95 831Q96 845 107 854T131 864Q144 863 153 853T162 829Q161 814 150 805T126 796Q113 796 104 806T95 831V831ZM269 831Q270 845 281 854T305 864Q318 863 327 853T336 829Q335
814 324 805T300 796Q287 796 278 806T269 831V831Z" />
<glyph unicode="&#xd0;" horiz-adv-x="738" d="M89 0L176 710H339Q442 710 510 683T619 609T675 503T688 379Q686 288 654 217T567 98T441 25T286 0H89ZM143 47H290Q361 47 423 68T534 131T609 235T639 380Q641 443 625 494T573 583T482 641T351 662H218L143 47ZM294
374H536L530 326H288L294 374Z" />
<glyph unicode="&#xd1;" horiz-adv-x="824" d="M683 -17H681L200 618L212 624L136 0H89L178 725H180L662 86L649 85L725 710H772L683 -17ZM558 755Q527 757 509 773T476 808Q465 823 453 836T421 850Q409 851 396 843T372 815T355 762L323 766Q328 807 343 834T381
876T427 888Q456 887 473 871T503 835Q515 819 528 806T561 792Q575 791 587 799T609 827T623 880L655 877Q651 835 637 808T603 767T558 755Z" />
<glyph unicode="&#xd2;" horiz-adv-x="865" d="M429 -7Q360 -7 298 16T189 84T115 189T88 328Q88 394 113 462T186 588T307 681T474 717Q543 717 605 694T714 626T788 520T815 381Q815 315 790 247T717 122T596 29T429 -7ZM430 40Q512 40 574 71T679 152T743 262T765
379Q765 438 743 490T682 583T589 647T472 670Q390 670 328 639T224 558T160 448T138 330Q138 271 159 219T220 126T313 63T430 40ZM446 932L516 799H482L393 932H446Z" />
<glyph unicode="&#xd3;" horiz-adv-x="865" d="M429 -7Q360 -7 298 16T189 84T115 189T88 328Q88 394 113 462T186 588T307 681T474 717Q543 717 605 694T714 626T788 520T815 381Q815 315 790 247T717 122T596 29T429 -7ZM430 40Q512 40 574 71T679 152T743 262T765
379Q765 438 743 490T682 583T589 647T472 670Q390 670 328 639T224 558T160 448T138 330Q138 271 159 219T220 126T313 63T430 40ZM635 932L518 799H484L583 932H635Z" />
<glyph unicode="&#xd4;" horiz-adv-x="865" d="M429 -7Q360 -7 298 16T189 84T115 189T88 328Q88 394 113 462T186 588T307 681T474 717Q543 717 605 694T714 626T788 520T815 381Q815 315 790 247T717 122T596 29T429 -7ZM430 40Q512 40 574 71T679 152T743 262T765
379Q765 438 743 490T682 583T589 647T472 670Q390 670 328 639T224 558T160 448T138 330Q138 271 159 219T220 126T313 63T430 40ZM586 799L503 936L519 939L401 799H356L515 980V980L631 799H586Z" />
<glyph unicode="&#xd5;" horiz-adv-x="865" d="M429 -7Q360 -7 298 16T189 84T115 189T88 328Q88 394 113 462T186 588T307 681T474 717Q543 717 605 694T714 626T788 520T815 381Q815 315 790 247T717 122T596 29T429 -7ZM430 40Q512 40 574 71T679 152T743 262T765
379Q765 438 743 490T682 583T589 647T472 670Q390 670 328 639T224 558T160 448T138 330Q138 271 159 219T220 126T313 63T430 40ZM576 763Q545 765 527 781T494 816Q483 831 471 844T439 858Q427 859 414 851T390 823T373 770L341 774Q346 815 361 842T399 884T445
896Q474 895 491 879T521 843Q533 827 546 814T579 800Q593 799 605 807T627 835T641 888L673 885Q669 843 655 816T621 775T576 763Z" />
<glyph unicode="&#xd6;" horiz-adv-x="865" d="M429 -7Q360 -7 298 16T189 84T115 189T88 328Q88 394 113 462T186 588T307 681T474 717Q543 717 605 694T714 626T788 520T815 381Q815 315 790 247T717 122T596 29T429 -7ZM430 40Q512 40 574 71T679 152T743 262T765
379Q765 438 743 490T682 583T589 647T472 670Q390 670 328 639T224 558T160 448T138 330Q138 271 159 219T220 126T313 63T430 40ZM384 831Q385 845 396 854T420 864Q433 863 442 853T451 829Q450 814 439 805T415 796Q402 796 393 806T384 831V831ZM558 831Q559
845 570 854T594 864Q607 863 616 853T625 829Q624 814 613 805T589 796Q576 796 567 806T558 831V831Z" />
<glyph unicode="&#xd7;" horiz-adv-x="507" d="M291 184Q323 212 353 239T416 294Q424 286 431 277T446 258Q415 231 384 204T322 148Q347 120 371 93T420 36L379 0Q355 28 331 55T281 111Q250 83 219 56T157 1Q150 9 142 18T126 36Q157 64 188 91T250 147L153
258L193 295L291 184Z" />
<glyph unicode="&#xd8;" horiz-adv-x="842" d="M814 699L132 -6L110 16L792 722L814 699ZM429 -7Q360 -7 298 16T189 84T115 189T88 328Q88 394 113 462T186 588T307 681T474 717Q543 717 605 694T714 626T788 520T815 381Q815 315 790 247T717 122T596 29T429
-7ZM430 40Q512 40 574 71T679 152T743 262T765 379Q765 438 743 490T682 583T589 647T472 670Q390 670 328 639T224 558T160 448T138 330Q138 271 159 219T220 126T313 63T430 40Z" />
<glyph unicode="&#xd9;" horiz-adv-x="717" d="M169 240Q161 178 180 133T241 64T338 39Q399 39 445 63T521 133T557 240L614 710H664L607 237Q597 160 561 105T467 21T332 -8V-8Q263 -8 212 21T135 105T118 237L176 710H226L169 240ZM378 932L448 799H414L325 932H378Z" />
<glyph unicode="&#xda;" horiz-adv-x="717" d="M169 240Q161 178 180 133T241 64T338 39Q399 39 445 63T521 133T557 240L614 710H664L607 237Q597 160 561 105T467 21T332 -8V-8Q263 -8 212 21T135 105T118 237L176 710H226L169 240ZM567 932L450 799H416L515 932H567Z" />
<glyph unicode="&#xdb;" horiz-adv-x="717" d="M169 240Q161 178 180 133T241 64T338 39Q399 39 445 63T521 133T557 240L614 710H664L607 237Q597 160 561 105T467 21T332 -8V-8Q263 -8 212 21T135 105T118 237L176 710H226L169 240ZM518 799L435 936L451 939L333
799H288L447 980V980L563 799H518Z" />
<glyph unicode="&#xdc;" horiz-adv-x="717" d="M169 240Q161 178 180 133T241 64T338 39Q399 39 445 63T521 133T557 240L614 710H664L607 237Q597 160 561 105T467 21T332 -8V-8Q263 -8 212 21T135 105T118 237L176 710H226L169 240ZM316 831Q317 845 328 854T352
864Q365 863 374 853T383 829Q382 814 371 805T347 796Q334 796 325 806T316 831V831ZM490 831Q491 845 502 854T526 864Q539 863 548 853T557 829Q556 814 545 805T521 796Q508 796 499 806T490 831V831Z" />
<glyph unicode="&#xdd;" horiz-adv-x="661" d="M312 253L104 710H162L351 294L334 293L623 710H684L362 253L331 0H281L312 253ZM543 934L426 801H392L491 934H543Z" />
<glyph unicode="&#xde;" d="M320 556Q356 556 391 546T456 514T502 460T519 379Q519 337 504 296T459 221T380 166T266 145H157L139 0H89L176 704H226L208 556H320ZM272 192Q329 192 366 211T426 258T458 318T468 373Q468 411 450 442T396 491T312 509H202L163 192H272Z" />
<glyph unicode="&#xdf;" horiz-adv-x="570" d="M303 -5Q272 -5 241 4T185 34L207 63Q233 43 261 38T304 33Q336 33 364 45T414 80T451 130T469 192Q475 240 459 279T409 342T330 370H326L331 413Q366 411 389 422T425 451T445 487T451 517Q451 558 427 589T347
623Q300 625 268 601T216 531T189 427L130 0H82L132 359H67L74 399H139L147 457Q156 524 182 570T251 641T352 663Q406 661 438 641T484 590T499 525Q499 503 494 478T467 430T399 391Q438 377 466 348T508 279T516 187Q511 144 493 109T445 48T380 9T303 -5Z"
/>
<glyph unicode="&#xe0;" horiz-adv-x="561" d="M232 -6Q182 -6 141 18T75 85T50 183Q50 218 62 256T101 327T168 382T266 403Q312 403 347 388T406 346T442 286L433 272L454 391H495L448 0H401L415 114L422 96Q412 78 394 60T351 26T297 3T232 -6ZM255 33Q295
33 330 50T389 98T422 169L428 226Q425 265 404 296T349 345T272 363Q224 363 191 345T138 300T108 242T99 188Q99 145 119 110T174 54T255 33ZM245 624L315 491H281L192 624H245Z" />
<glyph unicode="&#xe1;" horiz-adv-x="561" d="M232 -6Q182 -6 141 18T75 85T50 183Q50 218 62 256T101 327T168 382T266 403Q312 403 347 388T406 346T442 286L433 272L454 391H495L448 0H401L415 114L422 96Q412 78 394 60T351 26T297 3T232 -6ZM255 33Q295
33 330 50T389 98T422 169L428 226Q425 265 404 296T349 345T272 363Q224 363 191 345T138 300T108 242T99 188Q99 145 119 110T174 54T255 33ZM434 624L317 491H283L382 624H434Z" />
<glyph unicode="&#xe2;" horiz-adv-x="561" d="M232 -6Q182 -6 141 18T75 85T50 183Q50 218 62 256T101 327T168 382T266 403Q312 403 347 388T406 346T442 286L433 272L454 391H495L448 0H401L415 114L422 96Q412 78 394 60T351 26T297 3T232 -6ZM255 33Q295
33 330 50T389 98T422 169L428 226Q425 265 404 296T349 345T272 363Q224 363 191 345T138 300T108 242T99 188Q99 145 119 110T174 54T255 33ZM385 491L302 628L318 631L200 491H155L314 672V672L430 491H385Z" />
<glyph unicode="&#xe3;" horiz-adv-x="561" d="M232 -6Q182 -6 141 18T75 85T50 183Q50 218 62 256T101 327T168 382T266 403Q312 403 347 388T406 346T442 286L433 272L454 391H495L448 0H401L415 114L422 96Q412 78 394 60T351 26T297 3T232 -6ZM255 33Q295
33 330 50T389 98T422 169L428 226Q425 265 404 296T349 345T272 363Q224 363 191 345T138 300T108 242T99 188Q99 145 119 110T174 54T255 33ZM631 455Q600 457 582 473T549 508Q538 523 526 536T494 550Q482 551 469 543T445 515T428 462L396 466Q401 507 416
534T454 576T500 588Q529 587 546 571T576 535Q588 519 601 506T634 492Q648 491 660 499T682 527T696 580L728 577Q724 535 710 508T676 467T631 455Z" />
<glyph unicode="&#xe4;" horiz-adv-x="561" d="M232 -6Q182 -6 141 18T75 85T50 183Q50 218 62 256T101 327T168 382T266 403Q312 403 347 388T406 346T442 286L433 272L454 391H495L448 0H401L415 114L422 96Q412 78 394 60T351 26T297 3T232 -6ZM255 33Q295
33 330 50T389 98T422 169L428 226Q425 265 404 296T349 345T272 363Q224 363 191 345T138 300T108 242T99 188Q99 145 119 110T174 54T255 33ZM183 523Q184 537 195 546T219 556Q232 555 241 545T250 521Q249 506 238 497T214 488Q201 488 192 498T183 523V523ZM357
523Q358 537 369 546T393 556Q406 555 415 545T424 521Q423 506 412 497T388 488Q375 488 366 498T357 523V523Z" />
<glyph unicode="&#xe5;" horiz-adv-x="561" d="M232 -6Q182 -6 141 18T75 85T50 183Q50 218 62 256T101 327T168 382T266 403Q312 403 347 388T406 346T442 286L433 272L454 391H495L448 0H401L415 114L422 96Q412 78 394 60T351 26T297 3T232 -6ZM255 33Q295
33 330 50T389 98T422 169L428 226Q425 265 404 296T349 345T272 363Q224 363 191 345T138 300T108 242T99 188Q99 145 119 110T174 54T255 33ZM226 502Q228 538 251 558T308 578Q340 577 360 557T379 506Q378 470 354 450T297 430Q265 431 245 451T226 502ZM256
502Q256 483 268 470T299 456Q319 456 333 469T349 504Q350 524 338 537T307 550Q288 551 273 538T256 502Z" />
<glyph unicode="&#xe6;" horiz-adv-x="776" d="M522 -8Q486 -6 456 6T402 38T363 84T341 142T339 209Q346 266 380 311T465 381T574 402Q609 400 637 388T686 354T721 305T741 244L373 141L369 176L702 270L690 257Q682 285 665 308T624 346T566 363Q521 366 483
346T418 291T386 208Q382 175 390 145T417 90T464 51T529 33Q561 32 591 41T647 70L667 34Q636 13 598 2T522 -8ZM200 -10Q153 -10 117 3T61 43T40 104Q40 138 57 167T110 213T203 228Q228 226 252 219T297 200T334 172T361 137L348 105Q330 132 309 150T262 179T208
188Q147 192 119 164T93 101Q95 75 111 58T153 33T212 26Q241 27 270 36T322 68L339 205L366 152L353 46Q333 24 306 12T251 -5T200 -10ZM339 205L346 256Q350 286 344 306T324 337T293 354T257 360Q218 362 182 349T108 303L87 336Q122 367 166 385T268 401Q297
399 319 392T356 374T381 346T393 310T394 267L391 246L339 205Z" />
<glyph unicode="&#xe7;" horiz-adv-x="403" d="M355 68Q361 61 366 54T377 38Q348 16 314 4T242 -8Q190 -8 149 16T85 82T61 175Q61 221 79 262T130 334T204 382T292 400Q330 400 361 388T417 355Q410 348 402 340T386 324Q367 341 342 350T288 360Q238 360 196
336T128 271T102 180Q102 139 120 106T172 53T247 33Q277 33 304 42T355 68V68ZM242 -7Q240 -25 245 -34T260 -49T277 -61Q294 -74 301 -91T309 -125Q309 -158 295 -183T257 -222T203 -236Q173 -236 150 -220T119 -170Q127 -167 135 -164T150 -158Q152 -177 167
-189T204 -201Q235 -201 254 -180T274 -128Q274 -106 264 -94T240 -73T217 -51T210 -18L213 0H243L242 -7Z" />
<glyph unicode="&#xe8;" horiz-adv-x="488" d="M252 33Q281 33 309 43T359 70L379 34Q351 15 317 4T248 -7Q190 -7 145 17T75 85T50 186Q50 228 66 266T111 335T180 384T269 402Q304 402 334 392T388 363T428 313T453 244L96 133L88 169L419 271L401 257Q388 301
354 332T268 363Q220 363 181 340T120 277T97 191Q97 146 117 111T172 54T252 33ZM224 627L294 494H260L171 627H224Z" />
<glyph unicode="&#xe9;" horiz-adv-x="432" d="M252 33Q281 33 309 43T359 70L379 34Q351 15 317 4T248 -7Q190 -7 145 17T75 85T50 186Q50 228 66 266T111 335T180 384T269 402Q304 402 334 392T388 363T428 313T453 244L96 133L88 169L419 271L401 257Q388 301
354 332T268 363Q220 363 181 340T120 277T97 191Q97 146 117 111T172 54T252 33ZM415 615L298 482H264L363 615H415Z" />
<glyph unicode="&#xea;" horiz-adv-x="488" d="M252 33Q281 33 309 43T359 70L379 34Q351 15 317 4T248 -7Q190 -7 145 17T75 85T50 186Q50 228 66 266T111 335T180 384T269 402Q304 402 334 392T388 363T428 313T453 244L96 133L88 169L419 271L401 257Q388 301
354 332T268 363Q220 363 181 340T120 277T97 191Q97 146 117 111T172 54T252 33ZM620 494L537 631L553 634L435 494H390L549 675V675L665 494H620Z" />
<glyph unicode="&#xeb;" horiz-adv-x="488" d="M252 33Q281 33 309 43T359 70L379 34Q351 15 317 4T248 -7Q190 -7 145 17T75 85T50 186Q50 228 66 266T111 335T180 384T269 402Q304 402 334 392T388 363T428 313T453 244L96 133L88 169L419 271L401 257Q388 301
354 332T268 363Q220 363 181 340T120 277T97 191Q97 146 117 111T172 54T252 33ZM162 526Q163 540 174 549T198 559Q211 558 220 548T229 524Q228 509 217 500T193 491Q180 491 171 501T162 526V526ZM336 526Q337 540 348 549T372 559Q385 558 394 548T403 524Q402
509 391 500T367 491Q354 491 345 501T336 526V526Z" />
<glyph unicode="&#xec;" horiz-adv-x="225" d="M113 391H160L112 0H65L113 391ZM351 615L421 482H387L298 615H351Z" />
<glyph unicode="&#xed;" horiz-adv-x="225" d="M113 391H160L112 0H65L113 391ZM540 615L423 482H389L488 615H540Z" />
<glyph unicode="&#xee;" horiz-adv-x="225" d="M113 391H160L112 0H65L113 391ZM235 482L152 619L168 622L50 482H5L164 663V663L280 482H235Z" />
<glyph unicode="&#xef;" horiz-adv-x="225" d="M113 391H160L112 0H65L113 391ZM289 514Q290 528 301 537T325 547Q338 546 347 536T356 512Q355 497 344 488T320 479Q307 479 298 489T289 514V514ZM463 514Q464 528 475 537T499 547Q512 546 521 536T530 512Q529
497 518 488T494 479Q481 479 472 489T463 514V514Z" />
<glyph unicode="&#xf0;" horiz-adv-x="520" d="M238 -6Q211 -5 184 2T132 25T89 65T60 122T51 199Q53 241 67 278T109 344T177 389T269 403Q295 402 321 394T370 369T412 328T439 271L424 243Q427 307 410 373T362 502T290 621T202 717L238 746Q289 702 332 643T408
517T458 379T474 243Q472 193 456 148T410 68T337 13T238 -6ZM245 33Q293 32 326 50T380 95T410 152T421 204Q422 250 406 280T364 328T314 354T273 362Q230 364 198 350T144 313T111 259T98 198Q97 142 119 106T176 52T245 33ZM418 674L209 561L195 593L407 706L418
674Z" />
<glyph unicode="&#xf1;" horiz-adv-x="512" d="M154 391L149 291L140 301Q166 346 213 374T320 402Q379 402 409 370T434 285L399 0H352L385 273Q390 311 368 335T301 360Q260 360 225 341T166 287T138 209L112 0H65L113 391H154ZM625 463Q594 465 576 481T543
516Q532 531 520 544T488 558Q476 559 463 551T439 523T422 470L390 474Q395 515 410 542T448 584T494 596Q523 595 540 579T570 543Q582 527 595 514T628 500Q642 499 654 507T676 535T690 588L722 585Q718 543 704 516T670 475T625 463Z" />
<glyph unicode="&#xf2;" horiz-adv-x="519" d="M248 -8Q209 -8 173 5T110 44T66 104T50 183Q50 221 63 259T102 330T170 382T270 402Q325 402 369 378T441 312T468 212Q468 184 460 153T436 94T394 42T332 6T248 -8ZM250 32Q309 32 346 59T402 127T420 209Q420
244 408 272T375 320T326 351T268 362Q210 362 172 336T116 268T98 185Q98 140 118 106T174 52T250 32ZM228 619L298 486H264L175 619H228Z" />
<glyph unicode="&#xf3;" horiz-adv-x="519" d="M248 -8Q209 -8 173 5T110 44T66 104T50 183Q50 221 63 259T102 330T170 382T270 402Q325 402 369 378T441 312T468 212Q468 184 460 153T436 94T394 42T332 6T248 -8ZM250 32Q309 32 346 59T402 127T420 209Q420
244 408 272T375 320T326 351T268 362Q210 362 172 336T116 268T98 185Q98 140 118 106T174 52T250 32ZM417 619L300 486H266L365 619H417Z" />
<glyph unicode="&#xf4;" horiz-adv-x="519" d="M248 -8Q209 -8 173 5T110 44T66 104T50 183Q50 221 63 259T102 330T170 382T270 402Q325 402 369 378T441 312T468 212Q468 184 460 153T436 94T394 42T332 6T248 -8ZM250 32Q309 32 346 59T402 127T420 209Q420
244 408 272T375 320T326 351T268 362Q210 362 172 336T116 268T98 185Q98 140 118 106T174 52T250 32ZM624 486L541 623L557 626L439 486H394L553 667V667L669 486H624Z" />
<glyph unicode="&#xf5;" horiz-adv-x="519" d="M248 -8Q209 -8 173 5T110 44T66 104T50 183Q50 221 63 259T102 330T170 382T270 402Q325 402 369 378T441 312T468 212Q468 184 460 153T436 94T394 42T332 6T248 -8ZM250 32Q309 32 346 59T402 127T420 209Q420
244 408 272T375 320T326 351T268 362Q210 362 172 336T116 268T98 185Q98 140 118 106T174 52T250 32ZM614 450Q583 452 565 468T532 503Q521 518 509 531T477 545Q465 546 452 538T428 510T411 457L379 461Q384 502 399 529T437 571T483 583Q512 582 529 566T559
530Q571 514 584 501T617 487Q631 486 643 494T665 522T679 575L711 572Q707 530 693 503T659 462T614 450Z" />
<glyph unicode="&#xf6;" horiz-adv-x="519" d="M248 -8Q209 -8 173 5T110 44T66 104T50 183Q50 221 63 259T102 330T170 382T270 402Q325 402 369 378T441 312T468 212Q468 184 460 153T436 94T394 42T332 6T248 -8ZM250 32Q309 32 346 59T402 127T420 209Q420
244 408 272T375 320T326 351T268 362Q210 362 172 336T116 268T98 185Q98 140 118 106T174 52T250 32ZM166 518Q167 532 178 541T202 551Q215 550 224 540T233 516Q232 501 221 492T197 483Q184 483 175 493T166 518V518ZM340 518Q341 532 352 541T376 551Q389
550 398 540T407 516Q406 501 395 492T371 483Q358 483 349 493T340 518V518Z" />
<glyph unicode="&#xf7;" horiz-adv-x="503" d="M230 94Q230 110 242 120T269 131Q280 131 289 123T298 100Q298 90 293 82T279 68T261 63Q248 63 239 72T230 94V94ZM263 361Q263 377 275 387T302 398Q313 398 322 390T331 368Q331 352 319 342T293 331Q281 331
272 339T263 361V361ZM100 252H462L456 209H94L100 252Z" />
<glyph unicode="&#xf8;" horiz-adv-x="489" d="M458 382Q443 366 419 341T364 285T300 220T234 152T170 87T116 31T76 -10L57 11Q72 27 96 52T151 107T214 172T280 240T343 304T398 360T438 401L458 382ZM248 -8Q209 -8 173 5T110 44T66 104T50 183Q50 221 63
259T102 330T170 382T270 402Q325 402 369 378T441 312T468 212Q468 184 460 153T436 94T394 42T332 6T248 -8ZM250 32Q309 32 346 59T402 127T420 209Q420 244 408 272T375 320T326 351T268 362Q210 362 172 336T116 268T98 185Q98 140 118 106T174 52T250 32Z"
/>
<glyph unicode="&#xf9;" horiz-adv-x="509" d="M187 -11Q133 -11 103 20T78 103L113 391H160L126 115Q122 81 143 57T207 30Q246 30 281 50T341 104T371 183L397 391H444L396 0H354L364 110L369 99Q355 69 327 44T262 4T187 -11ZM238 632L308 499H274L185 632H238Z" />
<glyph unicode="&#xfa;" horiz-adv-x="509" d="M187 -11Q133 -11 103 20T78 103L113 391H160L126 115Q122 81 143 57T207 30Q246 30 281 50T341 104T371 183L397 391H444L396 0H354L364 110L369 99Q355 69 327 44T262 4T187 -11ZM427 632L310 499H276L375 632H427Z" />
<glyph unicode="&#xfb;" horiz-adv-x="509" d="M187 -11Q133 -11 103 20T78 103L113 391H160L126 115Q122 81 143 57T207 30Q246 30 281 50T341 104T371 183L397 391H444L396 0H354L364 110L369 99Q355 69 327 44T262 4T187 -11ZM378 499L295 636L311 639L193
499H148L307 680V680L423 499H378Z" />
<glyph unicode="&#xfc;" horiz-adv-x="509" d="M187 -11Q133 -11 103 20T78 103L113 391H160L126 115Q122 81 143 57T207 30Q246 30 281 50T341 104T371 183L397 391H444L396 0H354L364 110L369 99Q355 69 327 44T262 4T187 -11ZM176 531Q177 545 188 554T212
564Q225 563 234 553T243 529Q242 514 231 505T207 496Q194 496 185 506T176 531V531ZM350 531Q351 545 362 554T386 564Q399 563 408 553T417 529Q416 514 405 505T381 496Q368 496 359 506T350 531V531Z" />
<glyph unicode="&#xfd;" horiz-adv-x="487" d="M87 -188L412 391H462L139 -188H87ZM200 -4L64 391H117L240 21L200 -4ZM436 615L319 482H285L384 615H436Z" />
<glyph unicode="&#xfe;" horiz-adv-x="552" d="M200 760L140 274L137 297Q154 326 182 349T246 386T323 400Q376 400 416 377T479 313T502 219Q502 147 470 96T386 19T271 -8Q211 -8 168 21T110 94L121 107L83 -188H42L158 760H200ZM458 215Q458 256 440 288T389
340T315 360Q265 360 223 336T155 271T129 180Q129 139 148 106T200 53T275 33Q326 33 367 54T433 115T458 215Z" />
<glyph unicode="&#xff;" horiz-adv-x="464" d="M87 -188L412 391H462L139 -188H87ZM200 -4L64 391H117L240 21L200 -4ZM189 514Q190 528 201 537T225 547Q238 546 247 536T256 512Q255 497 244 488T220 479Q207 479 198 489T189 514V514ZM363 514Q364 528 375
537T399 547Q412 546 421 536T430 512Q429 497 418 488T394 479Q381 479 372 489T363 514V514Z" />
<glyph unicode="&#x2013;" horiz-adv-x="512" d="M127 218H430L425 175H122L127 218Z" />
<glyph unicode="&#x2014;" horiz-adv-x="704" d="M126 218H631L626 175H121L126 218Z" />
<glyph unicode="&#x2018;" horiz-adv-x="165" d="M175 593Q170 588 164 583T152 573Q127 600 119 637T124 715Q132 714 140 712T156 708Q146 673 151 643T175 593V593Z" />
<glyph unicode="&#x2019;" horiz-adv-x="165" d="M140 573Q136 578 132 583T122 593Q146 613 159 643T169 708Q177 710 186 712T203 715Q207 675 190 638T140 573V573Z" />
<glyph unicode="&#x201a;" horiz-adv-x="147" d="M34 -50Q30 -45 26 -40T16 -29Q39 -9 52 21T63 86Q71 88 80 90T97 93Q100 52 83 15T34 -50V-50Z" />
<glyph unicode="&#x201c;" horiz-adv-x="250" d="M170 593Q165 588 159 583T146 573Q121 600 114 637T119 715Q127 714 135 712T151 708Q140 673 146 643T170 593V593ZM274 593Q269 588 263 583T251 573Q226 600 218 637T223 715Q231 714 239 712T255 708Q245
673 250 643T274 593V593Z" />
<glyph unicode="&#x201d;" horiz-adv-x="249" d="M121 573Q117 578 113 583T103 593Q127 613 140 643T150 708Q158 710 167 712T184 715Q188 675 171 638T121 573V573ZM226 573Q222 578 217 583T207 593Q231 613 244 643T255 708Q263 710 272 712T289 715Q292
675 275 638T226 573V573Z" />
<glyph unicode="&#x201e;" horiz-adv-x="281" d="M34 -50Q30 -45 26 -40T16 -29Q39 -9 52 21T63 86Q71 88 80 90T97 93Q100 52 83 15T34 -50V-50ZM139 -50Q135 -45 130 -40T120 -29Q144 -9 157 21T168 86Q176 88 185 90T202 93Q205 52 188 15T139 -50V-50Z" />
<glyph unicode="&#x2022;" horiz-adv-x="481" d="M185 292Q185 320 199 343T238 380T289 394Q313 394 331 383T359 353T370 311Q370 283 356 260T318 224T266 210Q243 210 225 221T196 250T185 292V292Z" />
<glyph unicode="&#x2039;" horiz-adv-x="394" d="M147 240Q159 250 174 264T207 294T243 326T279 359T312 389T340 413L334 363Q319 350 303 334T269 302T235 270T203 240Q214 227 227 211T253 178T279 146T303 116L297 67L147 240Z" />
<glyph unicode="&#x203a;" horiz-adv-x="394" d="M260 240Q248 250 233 264T200 294T164 326T128 359T95 389T67 413L73 363Q88 350 104 334T138 302T172 270T204 240Q193 227 180 211T154 178T128 146T104 116L110 67L260 240Z" />
</font>
</defs>
</svg>
