<?xml version="1.0" standalone="no"?>
<!DOCTYPE svg PUBLIC "-//W3C//DTD SVG 1.1//EN" "http://www.w3.org/Graphics/SVG/1.1/DTD/svg11.dtd">
<svg xmlns="http://www.w3.org/2000/svg">
<defs >
<font id="JosefinSans" horiz-adv-x="550" ><font-face
    font-family="Josefin Sans Thin Medium"
    units-per-em="1000"
    panose-1="0 0 0 0 0 0 0 0 0 0"
    ascent="750"
    descent="-250"
    alphabetic="0" />
<glyph unicode=" " horiz-adv-x="300" />
<glyph unicode="!" horiz-adv-x="201" d="M126 750H219L148 179H56L126 750ZM72 -4Q47 0 35 16T27 56Q33 77 52 89T97 98Q122 94 133 77T140 37Q134 14 116 3T72 -4Z" />
<glyph unicode="&quot;" horiz-adv-x="344" d="M244 730Q236 667 227 605T210 478H123L153 730H244ZM380 730Q372 667 363 605T345 478H257L288 730H380Z" />
<glyph unicode="#" horiz-adv-x="579" d="M345 652Q333 604 321 557T297 462H391Q403 510 414 557T438 652H532Q520 604 508 557T484 462H583Q578 440 574 418T564 372H463Q457 349 452 325T440 276H540Q535 254 529 232T518 186H418Q407 139 396 93T373 0H280Q291
47 302 93T325 186H232Q221 139 210 93T187 0H93Q104 47 115 93T138 186H48Q54 209 59 231T70 276H160Q167 301 172 325T183 372H94Q99 395 104 417T114 462H204Q216 510 228 557T252 652H345ZM277 372Q271 349 266 325T253 276H347Q353 301 358 325T370 372H277Z"
/>
<glyph unicode="$" horiz-adv-x="581" d="M218 -68L271 372L305 405L353 792H416L366 379L332 345L281 -68H218ZM519 574Q483 596 440 613T355 632Q322 633 299 626T259 605T235 575T225 540Q223 510 242 487T293 446T362 410Q404 392 442 366T502 299T519 193Q515
155 497 118T447 52T367 7T258 -6Q212 -4 170 7T90 38T22 85L80 165Q102 145 132 128T195 101T261 88Q300 87 332 100T384 138T408 198Q410 229 394 252T350 293T290 326Q258 340 226 358T166 400T124 458T114 538Q120 597 152 640T235 705T351 727Q400 724 439
714T511 687T570 652L519 574Z" />
<glyph unicode="%" horiz-adv-x="822" d="M216 272Q186 274 161 285T119 318T93 371T87 445Q91 495 110 535T165 599T251 621Q279 620 303 609T345 576T372 524T378 450Q375 400 356 360T302 295T216 272ZM224 345Q245 345 258 360T279 400T288 454Q290 482 287
500T276 528T260 542T242 548Q220 548 207 534T186 496T176 440Q175 406 181 386T199 356T224 345ZM599 -18Q569 -17 545 -6T503 27T477 80T471 153Q475 203 494 244T549 308T635 331Q664 329 689 318T731 285T757 232T763 158Q759 110 740 69T685 4T599 -18ZM607
54Q630 54 643 69T663 110T672 164Q675 201 669 220T651 248T626 257Q605 257 591 244T570 206T560 150Q559 115 565 95T583 65T607 54ZM736 622L229 -2L127 0L633 622H736Z" />
<glyph unicode="&amp;" horiz-adv-x="714" d="M634 0Q624 0 604 0T563 0T526 0T510 0L227 457Q218 471 208 492T192 539T189 591Q192 633 216 671T284 734T390 759Q451 759 496 735T568 676L505 605Q477 634 451 651T395 669Q348 669 324 642T298 581Q297 568
301 553T312 524T322 504L634 0ZM318 343Q291 345 264 336T214 308T177 266T161 212Q158 176 175 147T224 102T294 84Q329 82 357 92T405 119T439 157L500 95Q468 48 409 17T268 -10Q201 -8 150 22T71 102T50 213Q54 262 79 302T145 370T232 414T327 428L318 343ZM569
429H667L510 122L439 170L569 429Z" />
<glyph unicode="&apos;" horiz-adv-x="167" d="M222 730Q214 667 205 605T187 478H98L129 730H222Z" />
<glyph unicode="(" horiz-adv-x="383" d="M93 279Q99 359 121 430T174 563T243 672T318 755L393 707Q347 662 306 598T237 453T199 274Q192 187 202 112T236 -24T291 -128L204 -167Q170 -122 141 -55T98 98T93 279V279Z" />
<glyph unicode=")" horiz-adv-x="383" d="M311 310Q305 231 283 160T230 27T161 -82T86 -165L11 -117Q57 -72 98 -9T167 136T204 316Q212 403 202 478T168 614T113 718L200 757Q235 712 263 644T306 492T311 310V310Z" />
<glyph unicode="*" horiz-adv-x="335" d="M201 521Q181 510 161 499T120 477Q114 491 108 505T95 534Q116 544 136 555T176 576Q160 587 142 598T107 621Q116 634 124 647T142 674Q160 663 178 652T214 629L225 720H290Q287 697 284 675T278 629Q299 640 320 651T362
673Q368 660 374 647T386 620Q364 609 344 598T301 575V575Q319 564 337 553T373 531Q363 517 354 503T334 475Q316 486 299 497T263 520Q260 499 257 478T251 434H190L201 521Z" />
<glyph unicode="+" horiz-adv-x="551" d="M274 417H368L351 279H487L476 189H340L323 52H229L246 189H111L122 279H257L274 417Z" />
<glyph unicode="," horiz-adv-x="203" d="M42 -204L-11 -168Q14 -147 25 -110T31 -34L122 -35Q126 -63 118 -95T90 -157T42 -204Z" />
<glyph unicode="-" horiz-adv-x="304" d="M86 263H273L262 173H75L86 263Z" />
<glyph unicode="." horiz-adv-x="166" d="M36 50Q36 78 57 96T101 114Q119 114 134 99T149 62Q149 44 140 30T116 8T87 0Q67 0 52 14T36 50V50Z" />
<glyph unicode="/" horiz-adv-x="392" d="M485 747Q390 555 296 364T108 -19H15Q110 173 203 364T392 747H485Z" />
<glyph unicode="0" horiz-adv-x="645" d="M306 -1Q252 1 206 19T126 75T74 166T58 292Q60 316 66 352T84 430T118 514T175 590T258 644T373 664Q426 663 473 642T555 581T607 484T616 351Q610 279 588 215T528 102T434 26T306 -1ZM318 101Q362 99 395 121T451
182T487 267T504 363Q507 435 488 478T433 542T357 563Q314 564 281 542T225 482T188 397T171 300Q168 229 187 185T242 122T318 101Z" />
<glyph unicode="1" horiz-adv-x="354" d="M126 659H304L223 0H115L183 556H113L126 659Z" />
<glyph unicode="2" horiz-adv-x="571" d="M42 0Q144 91 211 156T318 268T378 347T404 405T411 452Q411 491 396 515T355 552T296 565Q261 565 238 553T201 523T181 484T175 446Q175 419 182 397T202 358L130 299Q116 315 102 339T80 392T71 453Q71 485 83 522T122
592T195 646T307 667Q373 667 421 644T496 578T522 475Q522 434 512 395T474 312T398 214T274 87L226 103H509L497 0H42Z" />
<glyph unicode="3" horiz-adv-x="505" d="M466 659L269 377L209 408Q236 415 257 417T293 418Q339 416 378 394T441 331T465 236Q465 195 453 153T412 75T338 17T227 -7Q196 -7 161 1T93 28T36 77L100 160Q122 127 157 111T226 96Q258 96 282 107T322 138T346
181T355 232Q355 285 318 315T222 346Q199 347 177 342T143 331L139 335L308 570L339 557H105L118 659H466Z" />
<glyph unicode="4" horiz-adv-x="517" d="M-1 156V157L467 667H468L416 238H500L490 156H406L387 0H280L299 156H-1ZM343 433L156 222L146 238H309L334 443L343 433Z" />
<glyph unicode="5" horiz-adv-x="520" d="M235 -8Q212 -8 178 0T110 26T49 74L115 155Q131 133 152 120T194 102T232 97Q277 97 305 115T347 162T361 222Q361 258 349 281T315 318T270 339T224 347Q196 347 164 339T99 308L97 309L165 659H477L465 557H233L204
401L199 424Q211 429 230 431T270 434Q303 433 338 421T403 385T452 322T471 228Q471 190 459 149T418 73T345 15T235 -8Z" />
<glyph unicode="6" horiz-adv-x="566" d="M279 -8Q214 -8 164 21T84 102T54 228Q54 276 70 329T126 439T234 551T406 663L467 581Q382 548 322 502T227 405T181 308L155 316Q187 368 231 395T342 422Q371 422 402 411T461 376T506 316T524 227Q524 189 509 148T463
71T386 14T279 -8ZM280 88Q319 88 345 102T386 137T407 181T414 222Q414 256 398 281T355 320T292 335Q252 335 227 321T186 287T165 245T159 206Q159 174 174 147T217 104T280 88Z" />
<glyph unicode="7" horiz-adv-x="492" d="M523 659L184 0H58L357 571L396 557H75L88 659H523Z" />
<glyph unicode="8" horiz-adv-x="554" d="M41 199Q41 252 62 292T117 360T190 403Q167 423 152 448T139 508Q140 535 150 562T182 614T237 652T318 667Q368 667 407 648T470 598T493 526Q493 477 471 446T410 390Q436 376 460 353T499 297T515 222Q515 197 506
167T478 106T430 50T359 8T267 -8Q199 -8 149 21T70 97T41 199ZM150 205Q150 172 164 144T205 99T269 82Q309 82 340 101T390 152T409 222Q409 255 393 283T350 327T288 344Q244 344 213 323T166 270T150 205ZM241 503Q239 474 260 454T312 433Q338 433 355 445T380
474T388 507Q388 539 369 558T320 577Q286 577 265 557T241 503Z" />
<glyph unicode="9" horiz-adv-x="558" d="M253 216Q219 217 185 231T124 271T80 334T66 418Q68 456 84 496T131 570T208 626T315 646Q382 645 433 616T512 538T539 425Q537 362 512 305T440 196T323 95T159 -3L97 79Q185 114 251 155T357 241T408 327L437 318Q402
268 360 242T253 216ZM294 304Q353 303 388 331T430 425Q433 458 419 486T378 532T314 550Q270 552 240 532T195 482T177 422Q176 388 190 362T232 320T294 304Z" />
<glyph unicode=":" horiz-adv-x="178" d="M36 50Q36 78 57 96T101 114Q119 114 134 99T149 62Q149 44 139 30T115 8T87 0Q66 0 51 14T36 50V50ZM70 325Q70 352 90 370T135 389Q153 389 168 374T183 337Q183 318 173 305T149 283T120 275Q100 275 85 288T70 325V325Z" />
<glyph unicode=";" horiz-adv-x="204" d="M100 304Q100 322 110 336T134 359T164 368Q183 368 197 353T212 316Q212 288 192 271T149 253Q130 253 115 267T100 304V304ZM167 88Q138 35 110 -17T53 -122H-30Q-3 -69 22 -17T74 88H167Z" />
<glyph unicode="&lt;" horiz-adv-x="592" d="M470 -14Q367 50 265 114T59 241Q177 305 295 369T533 497L517 371Q458 339 398 307T277 241Q329 209 381 177T486 112V112L470 -14Z" />
<glyph unicode="=" horiz-adv-x="718" d="M126 199H639L627 109H115L126 199ZM150 396H663L651 306H139L150 396Z" />
<glyph unicode="&gt;" horiz-adv-x="584" d="M93 112Q153 144 213 176T334 241Q282 274 230 306T124 371L140 497Q243 433 345 369T552 241Q433 178 315 114T77 -14V-14L93 112Z" />
<glyph unicode="?" horiz-adv-x="446" d="M147 264Q151 297 164 318T195 354T237 383T285 414Q329 446 351 482T374 558Q374 585 363 606T332 639T282 652Q245 652 220 642T177 610T146 555V555Q127 562 108 569T69 585Q79 606 95 633T137 685T201 726T293 743Q345
743 384 719T446 655T469 565Q469 502 437 455T347 368Q327 355 304 340T261 303T238 245L228 166H135L147 264ZM159 -2Q140 -2 125 11T109 48Q109 75 130 93T173 111Q192 111 207 96T222 59Q222 32 202 15T159 -2V-2Z" />
<glyph unicode="@" horiz-adv-x="1024" d="M439 -220Q357 -220 285 -197T158 -125T72 -5T41 164Q41 227 60 294T120 425T227 540T384 621T596 652Q690 652 762 625T885 549T962 436T988 296Q988 235 970 180T918 83T840 17T738 -8Q697 -8 668 11T625 66T620 147L638
100Q622 74 592 49T523 7T445 -10Q390 -10 347 13T279 80T254 184Q254 254 285 311T370 403T496 437Q540 437 569 425T617 394T648 352L665 419H762L725 150Q723 132 725 117T737 94T764 86Q787 86 810 101T851 146T881 213T893 296Q893 372 857 434T752 533T582
571Q475 571 399 542T271 466T190 364T147 258T134 168Q134 88 158 30T226 -65T328 -121T455 -140Q513 -140 569 -122T676 -72L718 -132Q679 -162 631 -181T534 -210T439 -220ZM484 74Q516 74 542 86T589 120T622 172L634 259Q630 287 614 307T571 340T512 352Q471
352 437 331T384 274T364 197Q364 163 379 135T421 91T484 74Z" />
<glyph unicode="A" horiz-adv-x="700" d="M104 0H-1L411 755H417L644 0H521L361 586L444 636L104 0ZM227 272H486L510 180H184L227 272Z" />
<glyph unicode="B" horiz-adv-x="619" d="M355 726Q455 726 511 689T567 566Q567 527 555 486T515 412T435 367L432 371Q465 365 494 347T541 297T560 219Q560 162 539 120T482 52T399 13T301 0H75L163 726H355ZM335 412Q370 412 393 424T429 456T449 497T455
537Q455 583 426 604T345 626H261L235 412H335ZM305 99Q352 99 384 115T434 159T452 224Q452 260 433 280T383 310T321 319H223L197 99H305Z" />
<glyph unicode="C" horiz-adv-x="699" d="M620 39Q604 29 575 17T507 -4T423 -13Q361 -13 300 6T188 66T107 171T76 325Q76 383 89 440T131 550T205 643T312 706T456 729Q531 729 589 707T685 656L630 559Q603 582 561 602T466 626Q398 628 346 606T259 542T205
448T187 333Q187 279 204 235T253 158T329 109T427 91Q466 91 496 99T548 117T586 137L620 39Z" />
<glyph unicode="D" horiz-adv-x="755" d="M75 0L163 726H385Q485 726 552 695T656 613T708 497T716 365Q709 279 676 212T589 97T468 25T326 0H75ZM193 103H323Q381 103 431 120T519 170T580 254T607 371Q613 439 596 487T546 565T469 609T381 623H257L193 103Z" />
<glyph unicode="E" horiz-adv-x="656" d="M163 726H640L628 626H261L235 414H562L549 313H223L197 102H578L565 0H75L163 726Z" />
<glyph unicode="F" horiz-adv-x="591" d="M163 726H598L586 624H261L234 405H518L505 303H221L185 0H75L163 726Z" />
<glyph unicode="G" horiz-adv-x="762" d="M660 48Q639 32 601 19T517 -3T430 -11Q398 -11 359 -3T280 21T203 64T137 128T91 216T75 329Q76 381 91 437T136 545T213 639T324 704T472 728Q533 727 594 711T705 662L658 565Q620 591 569 606T470 621Q406 621 359
603T279 554T226 486T197 408T186 332Q186 281 202 243T245 177T306 132T375 105T442 95Q473 93 504 98T559 114L576 255H435L448 356H697L660 48Z" />
<glyph unicode="H" horiz-adv-x="787" d="M745 726L656 0H546L585 313H223L185 0H75L163 726H273L235 417H597L635 726H745Z" />
<glyph unicode="I" horiz-adv-x="316" d="M163 726H273L185 0H75L163 726Z" />
<glyph unicode="J" horiz-adv-x="375" d="M261 136Q250 47 208 -16T102 -113T-40 -150V-150L-27 -46Q19 -43 57 -23T121 37T154 139L226 726H333L261 136Z" />
<glyph unicode="K" horiz-adv-x="683" d="M236 440L228 404L245 425L567 726H705L367 411L630 0H495L280 344L218 289L182 0H75L163 726H271L236 440Z" />
<glyph unicode="L" horiz-adv-x="614" d="M163 726H270L193 103H557L544 0H75L163 726Z" />
<glyph unicode="M" horiz-adv-x="932" d="M177 0H74L166 750H167L486 203L441 213L892 750H893L801 0H695L757 509V454L443 75H441L215 454L239 504L177 0Z" />
<glyph unicode="N" horiz-adv-x="841" d="M707 -25H704L214 532L243 520L181 0H74L166 749H170L654 192L630 200L693 726H799L707 -25Z" />
<glyph unicode="O" horiz-adv-x="857" d="M424 -7Q359 -7 297 14T185 79T106 186T76 337Q76 403 100 472T174 601T298 696T470 733Q536 733 598 712T710 647T789 539T819 388Q819 322 794 253T720 125T597 30T424 -7ZM426 96Q499 96 552 122T640 191T692 284T709
383Q709 433 691 477T640 555T563 610T466 630Q392 630 339 604T252 534T202 441T186 343Q186 293 203 249T253 170T329 116T426 96Z" />
<glyph unicode="P" horiz-adv-x="591" d="M362 726Q414 726 457 713T530 673T578 610T595 524Q595 479 580 433T532 347T447 283T319 259H216L185 0H75L163 726H362ZM328 362Q373 362 402 377T450 416T475 465T483 509Q483 535 472 561T434 604T361 622H261L229 362H328Z" />
<glyph unicode="Q" horiz-adv-x="943" d="M641 78L887 104L875 0H495L641 78ZM466 -7Q401 -7 339 14T227 79T148 186T118 337Q118 403 143 472T217 601T340 696T513 733Q578 733 640 712T752 647T831 539T861 388Q861 322 836 253T762 125T639 30T466 -7ZM468
96Q542 96 595 122T683 191T734 284T751 383Q751 433 733 477T682 555T605 610T508 630Q435 630 382 604T295 534T244 441T228 343Q228 293 246 249T295 170T371 116T468 96Z" />
<glyph unicode="R" horiz-adv-x="665" d="M362 726Q419 726 465 711T542 666T588 595T596 496Q590 453 572 411T521 335T439 281T319 260H213L181 0H75L163 726H362ZM330 362Q385 362 418 383T467 435T485 493Q488 513 484 535T467 577T430 610T367 623H257L226
362H330ZM444 300L596 0H472L317 297L444 300Z" />
<glyph unicode="S" horiz-adv-x="569" d="M519 574Q483 596 440 613T355 632Q322 633 299 626T259 605T235 575T225 540Q223 510 242 487T293 446T362 410Q404 392 442 366T502 299T519 193Q515 155 497 118T447 52T367 7T258 -6Q212 -4 170 7T90 38T22 85L80
165Q102 145 132 128T195 101T261 88Q300 87 332 100T384 138T408 198Q410 229 394 252T350 293T290 326Q258 340 226 358T166 400T124 458T114 538Q120 597 152 640T235 705T351 727Q400 724 439 714T511 687T570 652L519 574Z" />
<glyph unicode="T" horiz-adv-x="582" d="M110 726H594L581 621H392L316 0H206L282 621H97L110 726Z" />
<glyph unicode="U" horiz-adv-x="759" d="M216 259Q211 213 228 176T280 117T362 95Q411 95 451 117T517 176T549 259L606 726H716L659 256Q649 177 606 118T497 25T349 -8V-8Q273 -8 214 25T126 117T106 256L163 726H273L216 259Z" />
<glyph unicode="V" horiz-adv-x="724" d="M332 -28L103 726H230L393 145L333 157L622 726H748L335 -28H332Z" />
<glyph unicode="W" horiz-adv-x="1013" d="M103 722H227L349 189L332 196L518 560L551 415L300 -34L103 722ZM455 722H561L703 198L682 202L922 722H1036L659 -32L455 722Z" />
<glyph unicode="X" horiz-adv-x="652" d="M93 726H228L612 0H475L93 726ZM-6 0L295 397L335 292L126 0H-6ZM356 436L562 726H691L402 345L356 436Z" />
<glyph unicode="Y" horiz-adv-x="698" d="M298 239L89 726H220L381 330L348 328L604 726H736L405 239L375 0H268L298 239Z" />
<glyph unicode="Z" horiz-adv-x="662" d="M3 0L513 652L527 623H208Q188 623 169 630T139 652T130 686L140 762H238L237 749Q236 737 242 732T266 726H694L194 90L184 103H627L614 0H3Z" />
<glyph unicode="[" horiz-adv-x="351" d="M168 757H366L355 666H249L159 -61H266L255 -151H56L168 757Z" />
<glyph unicode="\" horiz-adv-x="398" d="M194 747Q241 555 288 364T381 -19H277Q230 173 183 364T89 747H194Z" />
<glyph unicode="]" horiz-adv-x="368" d="M132 757H330L219 -151H20L32 -61H138L227 666H121L132 757Z" />
<glyph unicode="^" horiz-adv-x="476" d="M352 486Q348 494 338 509T319 540T304 563Q298 556 285 540T258 509T238 486H173Q209 532 245 577T317 669V669Q342 623 367 578T417 486H352Z" />
<glyph unicode="_" horiz-adv-x="608" d="M113 89H518L507 0H102L113 89Z" />
<glyph unicode="`" horiz-adv-x="203" d="M153 620L219 486H154L39 620H153Z" />
<glyph unicode="a" horiz-adv-x="595" d="M222 -8Q177 -9 136 15T69 86T43 195Q43 238 58 280T104 358T178 415T277 437Q322 437 352 425T403 393T434 348L425 330L447 419H541L491 0H388L400 103L408 77Q402 70 388 56T350 27T295 2T222 -8ZM279 74Q307 74 332
85T377 118T408 168L418 255Q414 284 398 306T355 340T295 352Q255 352 228 338T183 301T157 254T149 207Q149 168 165 138T211 91T279 74Z" />
<glyph unicode="b" horiz-adv-x="601" d="M316 -10Q257 -10 217 15T155 78L169 105L156 0H53L148 777H251L196 331L198 367Q224 397 266 416T361 436Q415 436 460 413T532 343T559 227Q559 167 530 113T447 24T316 -10ZM305 77Q346 77 374 91T419 126T445 173T453
221Q453 262 438 292T393 338T325 355Q277 355 242 330T189 264L177 177Q182 161 191 144T216 111T253 87T305 77Z" />
<glyph unicode="c" horiz-adv-x="465" d="M402 28Q373 10 336 0T260 -11Q229 -11 192 -1T120 32T64 94T42 191Q42 233 57 275T102 351T175 406T276 427Q335 427 377 410T446 364L387 301Q372 316 345 329T282 342Q247 342 216 323T165 272T146 197Q146 163 162
135T208 89T278 72Q301 72 321 78T358 96L402 28Z" />
<glyph unicode="d" horiz-adv-x="601" d="M245 -9Q185 -8 139 20T67 97T43 200Q45 246 62 288T111 364T189 417T292 437Q349 435 391 410T455 350L434 325L489 777H592L496 0H393L405 96L413 71Q378 35 337 12T245 -9ZM276 78Q307 77 333 88T381 120T415 172L425
257Q421 285 404 307T361 342T302 355Q259 356 225 339T171 291T149 215Q147 176 162 145T207 97T276 78Z" />
<glyph unicode="e" horiz-adv-x="528" d="M277 77Q300 77 322 85T365 107L402 27Q371 10 336 1T266 -9Q200 -9 150 15T71 87T43 203Q43 244 58 284T103 359T179 414T286 435Q323 435 357 426T420 394T469 333T498 236L144 140L128 201L424 284L388 270Q378 308
350 331T283 354Q239 354 209 335T162 283T146 215Q146 167 165 137T214 92T277 77Z" />
<glyph unicode="f" horiz-adv-x="391" d="M87 0L126 328H55L67 419H138L158 589Q169 679 218 728T349 777Q371 777 397 771T444 750L390 675Q383 685 372 689T350 693Q314 693 291 669T262 587L241 419H372L361 328H229L190 0H87Z" />
<glyph unicode="g" horiz-adv-x="608" d="M255 -208Q202 -208 164 -197T97 -166T42 -121L111 -51Q131 -73 153 -88T203 -110T264 -118Q303 -118 331 -104T378 -65T400 -4L413 104L419 86Q399 45 355 18T248 -10Q190 -10 144 16T71 90T43 205Q43 239 57 279T101
354T175 413T283 436Q344 436 387 414T448 357L437 338L461 419H555L499 -22Q493 -79 461 -121T375 -185T255 -208ZM301 352Q259 352 230 337T183 300T157 252T148 205Q148 166 165 137T212 91T283 74Q312 74 339 86T387 119T421 168L431 255Q426 284 408 306T363
340T301 352Z" />
<glyph unicode="h" horiz-adv-x="562" d="M192 342Q220 383 266 409T373 436Q433 436 466 401T495 310L457 0H354L387 275Q390 307 375 327T323 347Q287 347 257 327T206 272T180 190L156 0H54L148 777H249L194 320L192 342Z" />
<glyph unicode="i" horiz-adv-x="260" d="M105 419H207L156 0H53L105 419ZM368 1073Q369 1098 387 1115T432 1132Q453 1132 471 1120T489 1080Q489 1055 471 1038T426 1021Q406 1021 387 1033T368 1073Z" />
<glyph unicode="j" horiz-adv-x="273" d="M-23 -142Q13 -119 35 -85T64 -2L117 419H220L168 0Q159 -72 125 -124T28 -206L-23 -142ZM377 1073Q378 1098 396 1115T441 1132Q462 1132 480 1120T498 1080Q498 1055 480 1038T435 1021Q415 1021 396 1033T377 1073Z" />
<glyph unicode="k" horiz-adv-x="509" d="M54 0L148 777H252L156 0H54ZM293 280L451 0H331L217 221L293 280ZM141 129L140 228L419 428L477 373L141 129Z" />
<glyph unicode="l" horiz-adv-x="261" d="M148 777H252L156 0H54L148 777Z" />
<glyph unicode="m" horiz-adv-x="834" d="M197 419L195 326L192 341Q223 385 267 410T367 436Q418 436 448 414T484 348L481 346Q512 386 556 411T647 436Q709 436 740 401T767 311L729 0H626L660 272Q662 303 652 324T608 347Q571 347 541 325T492 268T467 193L443
0H340L373 272Q376 303 365 324T320 347Q283 347 254 325T205 268T180 193L156 0H54L105 419H197Z" />
<glyph unicode="n" horiz-adv-x="562" d="M197 419V326L190 340Q218 383 264 409T372 436Q432 436 466 401T495 310L457 0H354L388 274Q391 307 375 327T320 347Q285 347 255 327T205 272T180 190L156 0H54L105 419H197Z" />
<glyph unicode="o" horiz-adv-x="551" d="M267 -10Q228 -10 188 2T116 41T63 105T43 196Q43 235 56 276T98 354T173 412T286 435Q344 435 394 411T477 341T509 229Q509 203 502 171T478 107T433 49T364 6T267 -10ZM270 75Q319 75 348 99T391 158T404 225Q404 260
393 284T362 322T322 344T282 351Q235 351 205 328T161 269T147 201Q147 156 166 128T214 88T270 75Z" />
<glyph unicode="p" horiz-adv-x="590" d="M291 -10Q245 -10 201 12T139 69L163 95L130 -201H28L106 426H195L193 324L170 353Q212 390 261 413T357 437Q410 437 454 413T524 347T550 247Q550 178 518 120T427 26T291 -10ZM289 76Q336 76 371 97T425 155T445 231Q445
267 428 295T383 338T321 354Q290 354 264 342T216 309T182 256L172 175Q175 158 183 141T206 109T240 85T289 76Z" />
<glyph unicode="q" horiz-adv-x="594" d="M237 -9Q188 -9 144 15T71 84T42 191Q42 239 60 283T110 361T186 416T280 437Q345 437 382 411T437 351L427 335L445 419H541L464 -201H362L399 103L426 80Q420 72 405 58T367 28T311 2T237 -9ZM266 73Q297 73 323 85T371
118T406 170L418 251Q415 269 406 286T383 318T348 342T298 351Q252 351 217 330T162 273T142 196Q142 160 159 132T204 89T266 73Z" />
<glyph unicode="r" horiz-adv-x="386" d="M197 419L190 319Q211 357 243 383T310 422T373 436L355 334Q309 337 271 316T208 260T179 185L156 0H54L105 419H197Z" />
<glyph unicode="s" horiz-adv-x="416" d="M187 -9Q168 -9 138 -4T76 18T21 67L71 122Q93 96 113 84T153 69T187 65Q222 65 236 82T251 116Q251 135 238 146T205 166T162 183Q116 201 93 230T70 298Q70 318 77 341T102 385T149 419T223 433Q244 433 270 429T325
414T377 379L329 318Q310 342 286 352T236 362Q215 362 202 355T182 336T175 313Q176 295 189 284T222 264T263 247Q292 235 313 219T346 181T355 124Q354 101 343 78T312 35T261 3T187 -9Z" />
<glyph unicode="t" horiz-adv-x="366" d="M164 603H267L245 418H357L347 337H235L194 0H91L132 337H58L68 418H142L164 603Z" />
<glyph unicode="u" horiz-adv-x="554" d="M185 -17Q128 -17 95 17T67 107L105 419H207L173 143Q171 112 186 92T236 71Q271 71 300 91T350 147T375 229L398 419H501L449 0H356L360 96L364 82Q347 54 320 32T259 -4T185 -17Z" />
<glyph unicode="v" horiz-adv-x="502" d="M225 -11L40 419H162L276 98L214 100L393 419H508L229 -11H225Z" />
<glyph unicode="w" horiz-adv-x="677" d="M435 -14L337 266L183 -13H177L40 419H141L230 144L194 150L311 353L288 419H377L461 157L441 156L581 419H682L441 -14H435Z" />
<glyph unicode="x" horiz-adv-x="469" d="M440 0H316L49 419H175L440 0ZM255 268L369 419H474L284 194L255 268ZM231 151L106 0H2L191 221L231 151Z" />
<glyph unicode="y" horiz-adv-x="504" d="M75 -201L428 419H523L177 -201H75ZM206 -3L56 419H171L292 49L206 -3Z" />
<glyph unicode="z" horiz-adv-x="475" d="M140 334Q106 334 86 355T69 415L74 459H152L151 445Q149 428 156 424T181 419H448L158 63L140 84H404L394 0H-1L296 364L308 334H140Z" />
<glyph unicode="{" horiz-adv-x="351" d="M324 666Q303 666 291 659T271 630T258 564L242 435Q238 396 224 370T192 327T160 302Q172 294 185 278T206 235T209 170L194 42Q189 -1 190 -23T203 -53T234 -61H277L266 -151H199Q175 -151 154 -150T116 -140T92 -106T90
-36L110 119Q114 147 111 178T94 232T46 256V256L57 345Q90 347 110 369T140 423T154 482L173 637Q179 684 192 709T223 744T263 755T311 757H378L367 666H324Z" />
<glyph unicode="|" horiz-adv-x="291" d="M178 710H271L155 -235H62L178 710Z" />
<glyph unicode="}" horiz-adv-x="359" d="M78 -61Q99 -61 111 -54T130 -24T143 42L158 167Q164 207 178 234T210 277T241 302Q230 311 217 327T195 369T191 435L207 564Q213 608 212 629T199 658T167 666H124L135 757H202Q227 757 249 756T287 745T309 710T310
637L291 478Q289 457 290 434T297 391T318 358T355 345V345L345 256Q321 255 304 242T275 210T257 167T247 123L229 -32Q223 -79 211 -104T180 -138T139 -149T91 -151H24L35 -61H78Z" />
<glyph unicode="~" horiz-adv-x="462" d="M316 428Q279 430 257 448T216 485Q204 499 193 509T164 521Q150 522 138 512T120 483T110 439L46 445Q49 489 66 525T113 581T180 599Q209 598 229 581T266 544Q280 528 293 516T322 503Q337 502 347 512T363 543T371
587L435 583Q435 535 419 499T375 445T316 428Z" />
<glyph unicode="&#xa0;" horiz-adv-x="300" />
<glyph unicode="&#xa1;" horiz-adv-x="201" d="M98 -202H5L76 369H168L98 -202ZM152 552Q177 548 189 532T197 492Q191 470 172 458T127 449Q102 454 91 471T84 511Q90 534 108 544T152 552Z" />
<glyph unicode="&#xa2;" horiz-adv-x="465" d="M272 486H336L268 -68H205L272 486ZM402 28Q373 10 336 0T260 -11Q229 -11 192 -1T120 32T64 94T42 191Q42 233 57 275T102 351T175 406T276 427Q335 427 377 410T446 364L387 301Q372 316 345 329T282 342Q247 342
216 323T165 272T146 197Q146 163 162 135T208 89T278 72Q301 72 321 78T358 96L402 28Z" />
<glyph unicode="&#xa3;" horiz-adv-x="579" d="M413 391L401 288H89L101 391H413ZM185 542Q191 590 222 627T305 686T420 707Q492 707 537 679T602 603L519 550Q510 564 498 576T464 596T410 604Q371 604 345 593T306 559T288 504L251 205L248 185Q246 170 242
153T231 122T215 98L208 103H409Q443 103 459 113T478 146L484 186L576 187L568 118Q564 85 549 58T502 16T419 0H22L34 103H79Q100 103 112 109T131 136T144 199L185 542Z" />
<glyph unicode="&#xa4;" horiz-adv-x="505" d="M415 436Q424 419 428 399T430 358Q428 333 419 312T393 272L418 241L369 199Q362 207 356 215T342 230Q304 209 258 210Q235 211 216 218T181 236V236L148 208L108 255L141 283Q131 300 127 321T125 364V364Q127
388 136 409T160 447Q154 455 148 462T136 477L185 518L210 490Q230 500 251 506T295 512Q318 511 338 503T374 483V483L406 509L445 463L415 436ZM188 360Q185 325 208 299T266 271Q292 270 314 282T351 314T367 360Q370 396 347 422T288 450Q263 451 241 439T205
407T188 360V360Z" />
<glyph unicode="&#xa5;" horiz-adv-x="698" d="M176 304H548L538 220H166L176 304ZM165 159H536L526 74H155L165 159ZM305 299L89 726H220L389 391L356 388L604 726H736L412 299L375 0H268L305 299Z" />
<glyph unicode="&#xa6;" horiz-adv-x="218" d="M81 119H174L130 -236H37L81 119ZM153 710H247L203 355H110L153 710Z" />
<glyph unicode="&#xa7;" horiz-adv-x="574" d="M365 132L331 173Q376 167 411 147T464 94T477 12Q470 -43 436 -86T349 -153T231 -173Q189 -170 149 -159T74 -129T14 -84L78 0Q104 -23 129 -40T182 -66T237 -77Q268 -79 296 -71T342 -43T363 4Q367 32 351 51T307
82T245 105Q214 116 182 130T125 166T86 216T77 286Q84 339 114 372T186 418T272 427L259 390Q209 409 180 435T140 494T133 564Q138 607 165 647T242 711T364 731Q422 727 469 706T551 653L496 577Q463 607 431 621T364 638Q327 640 301 632T262 607T246 572Q243
544 258 526T304 494T370 469Q401 458 432 444T488 410T526 360T533 287Q526 229 483 186T365 132ZM427 275Q432 301 415 321T371 355T314 375Q260 380 225 359T184 305Q179 276 194 255T237 219T299 191Q326 192 354 201T403 229T427 275Z" />
<glyph unicode="&#xa8;" horiz-adv-x="376" d="M78 537Q81 562 100 577T140 591Q160 590 176 573T189 531Q186 506 167 491T128 477Q107 478 91 495T78 537V537ZM267 537Q270 562 289 577T329 591Q349 590 365 573T378 531Q375 506 356 491T317 477Q296 478 280
495T267 537V537Z" />
<glyph unicode="&#xa9;" horiz-adv-x="855" d="M574 189Q549 169 510 153T421 139Q369 143 331 172T274 245T261 341Q268 398 297 440T373 505T476 525Q505 523 539 512T594 482L543 405Q528 421 510 427T473 435Q446 436 423 423T386 388T367 338Q364 310 372
287T401 249T449 232Q471 231 494 238T536 262L574 189ZM400 -15Q328 -10 268 19T166 98T105 212T94 351Q103 426 138 487T226 591T346 657T485 675Q557 670 616 641T718 562T780 448T791 308Q782 235 748 174T660 69T540 3T400 -15ZM410 69Q483 64 546 94T650
182T701 314Q711 389 684 450T602 550T474 592Q401 597 338 566T233 478T182 345Q173 270 199 209T279 111T410 69Z" />
<glyph unicode="&#xaa;" horiz-adv-x="397" d="M188 423Q151 423 124 440T83 490T75 573Q81 621 103 655T157 707T223 726Q262 726 284 711T317 673L326 716H400L365 429H286L295 496L297 481Q293 473 278 459T241 434T188 423ZM220 487Q239 487 255 495T283 517T301
551L308 602Q304 629 287 646T241 663Q209 663 185 639T155 576Q152 551 159 531T183 499T220 487Z" />
<glyph unicode="&#xab;" horiz-adv-x="609" d="M148 242Q153 246 168 260T203 295T246 338T289 380T325 415T345 434L332 329Q326 324 315 312T292 286T268 260T250 242Q255 237 263 225T280 199T297 173T310 155L298 50L148 242ZM321 242Q326 246 341 260T376
295T420 338T463 380T499 415T519 434L506 329Q500 324 489 312T465 286T441 260T424 242Q428 237 436 225T453 199T471 173T484 155L471 50L321 242Z" />
<glyph unicode="&#xac;" horiz-adv-x="494" d="M84 303H448L424 108H317L328 200H70L84 303Z" />
<glyph unicode="&#xad;" horiz-adv-x="600" d="M86 263H273L262 173H75L86 263Z" />
<glyph unicode="&#xae;" horiz-adv-x="503" d="M261 288Q201 293 155 324T84 406T67 519Q75 582 111 629T200 701T314 723Q375 720 421 689T491 606T508 492Q501 431 465 384T376 311T261 288ZM268 345Q313 343 351 361T415 415T446 496Q452 543 436 580T386 641T308
667Q263 669 225 651T161 597T129 515Q124 470 140 432T190 371T268 345ZM224 623L311 621Q350 621 367 598T380 541Q377 514 360 494T304 474L262 475L253 404H197L224 623ZM287 518Q304 517 311 524T321 543Q322 555 316 564T295 575L275 576L268 518H287ZM335
483L362 403H299L276 486L335 483Z" />
<glyph unicode="&#xaf;" horiz-adv-x="405" d="M153 541H386L379 483H146L153 541Z" />
<glyph unicode="&#xb0;" horiz-adv-x="285" d="M54 571Q57 601 74 624T117 660T173 672Q215 670 241 640T263 566Q261 536 244 512T202 475T147 463Q104 466 77 497T54 571V571ZM154 520Q175 519 191 532T208 567Q210 586 198 600T166 615Q146 616 130 602T113
567Q111 548 123 534T154 520V520Z" />
<glyph unicode="&#xb1;" horiz-adv-x="532" d="M294 579H388L371 441H506L496 351H360L343 214H249L266 351H131L141 441H277L294 579ZM108 173H473L462 83H97L108 173Z" />
<glyph unicode="&#xb2;" horiz-adv-x="404" d="M116 633Q130 651 153 664T203 686T259 694Q322 693 356 659T383 564Q378 524 353 488T290 420T216 363T149 314L172 383H375L365 297H84L91 355Q117 371 147 391T204 435T251 485T273 537Q277 575 264 591T221 608Q198
608 175 596T138 566L116 633Z" />
<glyph unicode="&#xb3;" horiz-adv-x="387" d="M174 294Q133 294 107 310T68 342L104 402Q110 395 119 385T141 367T170 362Q201 365 220 382T244 430Q248 462 230 479T182 497Q170 497 158 494T137 488L132 497L235 628L255 612H114L124 686H353L226 502L161
520Q174 531 192 538T234 546Q258 546 283 531T325 488T337 427Q333 390 311 360T254 312T174 294Z" />
<glyph unicode="&#xb4;" horiz-adv-x="284" d="M319 620L183 486H119L205 620H319Z" />
<glyph unicode="&#xb5;" horiz-adv-x="554" d="M185 -17Q131 -17 101 15T71 98L159 155L115 -201H30L67 110L105 419H207L174 145Q172 113 186 93T236 71Q271 71 300 91T350 147T375 229L398 419H501L449 0H356L359 82Q343 54 317 32T258 -4T185 -17Z" />
<glyph unicode="&#xb6;" horiz-adv-x="562" d="M256 428Q214 428 181 448T130 502T111 578Q111 628 136 669T205 736T297 761H555L461 0H370L452 671H379L296 0H204L256 428Z" />
<glyph unicode="&#xb7;" horiz-adv-x="219" d="M70 280Q70 308 91 326T135 344Q153 344 168 329T183 292Q183 274 174 260T150 238T121 230Q101 230 86 244T70 280V280Z" />
<glyph unicode="&#xb8;" horiz-adv-x="458" d="M104 -144Q113 -157 129 -165T166 -175Q190 -176 212 -166T236 -135Q239 -119 227 -105T179 -89Q163 -88 146 -91T114 -97L103 -46L173 3L251 1L174 -77L155 -50Q167 -47 181 -45T210 -44Q264 -46 296 -70T322 -139Q319
-173 296 -194T240 -224T170 -231Q131 -228 106 -215T67 -185L104 -144Z" />
<glyph unicode="&#xb9;" horiz-adv-x="274" d="M98 671H255L210 290H113L148 579H87L98 671Z" />
<glyph unicode="&#xba;" horiz-adv-x="377" d="M77 583Q83 626 107 659T169 710T252 725Q299 722 331 700T379 643T389 563Q384 520 361 487T300 436T215 421Q170 424 137 444T88 501T77 583ZM156 577Q154 554 162 535T185 503T222 490Q245 488 263 498T294 526T309
567Q312 591 305 610T281 642T243 656Q221 657 203 647T172 618T156 577Z" />
<glyph unicode="&#xbb;" horiz-adv-x="609" d="M436 242Q431 246 417 260T382 295T338 338T295 380T259 415T240 434L252 329Q258 324 269 312T293 286T317 260T334 242Q330 237 322 225T304 199T287 173T274 155L287 50L436 242ZM263 242Q258 246 243 260T208
295T164 338T121 380T86 415T66 434L78 329Q84 324 95 312T120 286T144 260T161 242Q156 237 148 225T131 199T113 173T100 155L113 50L263 242Z" />
<glyph unicode="&#xbc;" horiz-adv-x="883" d="M688 765Q593 574 500 383T311 0H218Q312 192 406 383T595 765H688ZM98 671H255L210 290H113L148 579H87L98 671ZM831 164L824 105H517L519 132L752 396H815L767 7H678L713 288L736 292L593 128L583 164H831Z" />
<glyph unicode="&#xbd;" horiz-adv-x="896" d="M116 671H273L228 290H131L166 579H105L116 671ZM656 766Q561 574 468 383T279 0H186Q281 192 375 383T563 766H656ZM540 334Q554 352 577 365T627 387T683 395Q746 394 780 360T807 265Q802 225 777 189T714 121T640
64T573 15L596 84H799L789 -2H508L515 56Q541 72 571 92T628 136T675 186T697 238Q701 276 688 292T645 309Q622 309 599 297T562 267L540 334Z" />
<glyph unicode="&#xbe;" horiz-adv-x="902" d="M428 294Q387 294 361 310T322 342L358 402Q364 395 373 385T395 367T424 362Q455 365 474 382T498 430Q502 462 484 479T436 497Q424 497 412 494T391 488L386 497L489 628L509 612H368L378 686H607L480 502L415
520Q428 531 446 538T488 546Q512 546 537 531T579 488T591 427Q587 390 565 360T508 312T428 294ZM710 766Q615 574 522 383T333 0H240Q335 192 429 383T617 766H710ZM849 157L842 99H534L536 125L770 389H833L785 0H696L731 282L754 285L611 121L601 157H849Z"
/>
<glyph unicode="&#xbf;" horiz-adv-x="434" d="M319 275Q315 242 303 221T272 185T230 157T182 125Q137 93 115 57T92 -19Q92 -46 103 -67T135 -100T184 -113Q222 -113 247 -103T289 -70T320 -16V-16Q340 -23 359 -30T397 -46Q388 -67 372 -94T330 -146T266 -187T173
-204Q122 -204 83 -180T20 -115T-3 -26Q-3 38 30 85T120 171Q139 184 163 199T205 236T228 294L238 373H331L319 275ZM307 541Q326 541 341 528T357 491Q357 464 337 446T293 428Q275 428 260 443T244 480Q244 508 264 524T307 541V541Z" />
<glyph unicode="&#xc0;" horiz-adv-x="700" d="M104 0H-1L411 755H417L644 0H521L361 586L444 636L104 0ZM227 272H486L510 180H184L227 272ZM387 941L453 807H388L273 941H387Z" />
<glyph unicode="&#xc1;" horiz-adv-x="700" d="M104 0H-1L411 755H417L644 0H521L361 586L444 636L104 0ZM227 272H486L510 180H184L227 272ZM583 941L447 807H383L469 941H583Z" />
<glyph unicode="&#xc2;" horiz-adv-x="700" d="M104 0H-1L411 755H417L644 0H521L361 586L444 636L104 0ZM227 272H486L510 180H184L227 272ZM497 807L423 906L450 914L350 807H256L444 990V990L591 807H497Z" />
<glyph unicode="&#xc3;" horiz-adv-x="700" d="M104 0H-1L411 755H417L644 0H521L361 586L444 636L104 0ZM227 272H486L510 180H184L227 272ZM496 772Q459 774 437 792T396 830Q384 843 373 853T344 865Q330 866 319 856T300 827T290 784L227 789Q229 833 246
869T293 925T360 943Q390 942 410 925T446 888Q460 872 473 860T502 847Q518 846 528 857T543 887T551 932L615 927Q615 879 599 844T555 790T496 772Z" />
<glyph unicode="&#xc4;" horiz-adv-x="700" d="M104 0H-1L411 755H417L644 0H521L361 586L444 636L104 0ZM227 272H486L510 180H184L227 272ZM278 858Q281 883 300 898T340 912Q360 911 376 894T389 852Q386 827 367 812T328 798Q307 799 291 816T278 858V858ZM467
858Q470 883 489 898T529 912Q549 911 565 894T578 852Q575 827 556 812T517 798Q496 799 480 816T467 858V858Z" />
<glyph unicode="&#xc5;" horiz-adv-x="700" d="M104 0H-1L411 755H417L644 0H521L361 586L444 636L104 0ZM227 272H486L510 180H184L227 272ZM335 862Q339 905 369 929T443 951Q484 948 509 922T529 855Q526 813 495 789T423 766Q382 768 357 794T335 862ZM391
858Q389 839 399 827T428 814Q447 813 460 824T475 856Q476 877 466 888T437 901Q419 902 406 891T391 858Z" />
<glyph unicode="&#xc6;" horiz-adv-x="956" d="M542 726H940L928 622H636L610 414H861L849 311H598L572 103H878L865 0H453L542 726ZM541 605Q538 595 533 581T527 565L108 0H-15L542 726L541 605ZM245 260H500L489 175H204L245 260Z" />
<glyph unicode="&#xc7;" horiz-adv-x="699" d="M620 39Q604 29 575 17T507 -4T423 -13Q361 -13 300 6T188 66T107 171T76 325Q76 383 89 440T131 550T205 643T312 706T456 729Q531 729 589 707T685 656L630 559Q603 582 561 602T466 626Q398 628 346 606T259 542T205
448T187 333Q187 279 204 235T253 158T329 109T427 91Q466 91 496 99T548 117T586 137L620 39ZM327 -145Q336 -158 352 -166T389 -176Q413 -177 435 -167T459 -136Q462 -120 450 -106T402 -90Q386 -89 369 -92T337 -98L326 -47L396 2L474 0L397 -78L378 -51Q390
-48 404 -46T433 -45Q487 -47 519 -71T545 -140Q542 -174 519 -195T463 -225T393 -232Q354 -229 329 -216T290 -186L327 -145Z" />
<glyph unicode="&#xc8;" horiz-adv-x="656" d="M163 726H640L628 626H261L235 414H562L549 313H223L197 102H578L565 0H75L163 726ZM365 923L431 789H366L251 923H365Z" />
<glyph unicode="&#xc9;" horiz-adv-x="656" d="M163 726H640L628 626H261L235 414H562L549 313H223L197 102H578L565 0H75L163 726ZM561 923L425 789H361L447 923H561Z" />
<glyph unicode="&#xca;" horiz-adv-x="656" d="M163 726H640L628 626H261L235 414H562L549 313H223L197 102H578L565 0H75L163 726ZM475 789L401 888L428 896L328 789H234L422 972V972L569 789H475Z" />
<glyph unicode="&#xcb;" horiz-adv-x="656" d="M163 726H640L628 626H261L235 414H562L549 313H223L197 102H578L565 0H75L163 726ZM257 840Q260 865 279 880T319 894Q339 893 355 876T368 834Q365 809 346 794T307 780Q286 781 270 798T257 840V840ZM446 840Q449
865 468 880T508 894Q528 893 544 876T557 834Q554 809 535 794T496 780Q475 781 459 798T446 840V840Z" />
<glyph unicode="&#xcc;" horiz-adv-x="316" d="M163 726H273L185 0H75L163 726ZM190 923L256 789H191L76 923H190Z" />
<glyph unicode="&#xcd;" horiz-adv-x="316" d="M163 726H273L185 0H75L163 726ZM386 923L250 789H186L272 923H386Z" />
<glyph unicode="&#xce;" horiz-adv-x="316" d="M163 726H273L185 0H75L163 726ZM300 789L226 888L253 896L153 789H59L247 972V972L394 789H300Z" />
<glyph unicode="&#xcf;" horiz-adv-x="316" d="M163 726H273L185 0H75L163 726ZM81 840Q84 865 103 880T143 894Q163 893 179 876T192 834Q189 809 170 794T131 780Q110 781 94 798T81 840V840ZM270 840Q273 865 292 880T332 894Q352 893 368 876T381 834Q378
809 359 794T320 780Q299 781 283 798T270 840V840Z" />
<glyph unicode="&#xd0;" horiz-adv-x="755" d="M75 0L163 726H385Q485 726 552 695T656 613T708 497T716 365Q709 279 676 212T589 97T468 25T326 0H75ZM193 103H323Q381 103 431 120T519 170T580 254T607 371Q613 439 596 487T546 565T469 609T381 623H257L193
103ZM305 403H567L554 299H292L305 403Z" />
<glyph unicode="&#xd1;" horiz-adv-x="841" d="M707 -25H704L214 532L243 520L181 0H74L166 749H170L654 192L630 200L693 726H799L707 -25ZM555 732Q518 734 496 752T455 790Q443 803 432 813T403 825Q389 826 378 816T359 787T349 744L286 749Q288 793 305 829T352
885T419 903Q449 902 469 885T505 848Q519 832 532 820T561 807Q577 806 587 817T602 847T610 892L674 887Q674 839 658 804T614 750T555 732Z" />
<glyph unicode="&#xd2;" horiz-adv-x="857" d="M424 -7Q359 -7 297 14T185 79T106 186T76 337Q76 403 100 472T174 601T298 696T470 733Q536 733 598 712T710 647T789 539T819 388Q819 322 794 253T720 125T597 30T424 -7ZM426 96Q499 96 552 122T640 191T692
284T709 383Q709 433 691 477T640 555T563 610T466 630Q392 630 339 604T252 534T202 441T186 343Q186 293 203 249T253 170T329 116T426 96ZM447 923L513 789H448L333 923H447Z" />
<glyph unicode="&#xd3;" horiz-adv-x="857" d="M424 -7Q359 -7 297 14T185 79T106 186T76 337Q76 403 100 472T174 601T298 696T470 733Q536 733 598 712T710 647T789 539T819 388Q819 322 794 253T720 125T597 30T424 -7ZM426 96Q499 96 552 122T640 191T692
284T709 383Q709 433 691 477T640 555T563 610T466 630Q392 630 339 604T252 534T202 441T186 343Q186 293 203 249T253 170T329 116T426 96ZM643 923L507 789H443L529 923H643Z" />
<glyph unicode="&#xd4;" horiz-adv-x="857" d="M424 -7Q359 -7 297 14T185 79T106 186T76 337Q76 403 100 472T174 601T298 696T470 733Q536 733 598 712T710 647T789 539T819 388Q819 322 794 253T720 125T597 30T424 -7ZM426 96Q499 96 552 122T640 191T692
284T709 383Q709 433 691 477T640 555T563 610T466 630Q392 630 339 604T252 534T202 441T186 343Q186 293 203 249T253 170T329 116T426 96ZM557 789L483 888L510 896L410 789H316L504 972V972L651 789H557Z" />
<glyph unicode="&#xd5;" horiz-adv-x="857" d="M424 -7Q359 -7 297 14T185 79T106 186T76 337Q76 403 100 472T174 601T298 696T470 733Q536 733 598 712T710 647T789 539T819 388Q819 322 794 253T720 125T597 30T424 -7ZM426 96Q499 96 552 122T640 191T692
284T709 383Q709 433 691 477T640 555T563 610T466 630Q392 630 339 604T252 534T202 441T186 343Q186 293 203 249T253 170T329 116T426 96ZM556 754Q519 756 497 774T456 812Q444 825 433 835T404 847Q390 848 379 838T360 809T350 766L287 771Q289 815 306 851T353
907T420 925Q450 924 470 907T506 870Q520 854 533 842T562 829Q578 828 588 839T603 869T611 914L675 909Q675 861 659 826T615 772T556 754Z" />
<glyph unicode="&#xd6;" horiz-adv-x="857" d="M424 -7Q359 -7 297 14T185 79T106 186T76 337Q76 403 100 472T174 601T298 696T470 733Q536 733 598 712T710 647T789 539T819 388Q819 322 794 253T720 125T597 30T424 -7ZM426 96Q499 96 552 122T640 191T692
284T709 383Q709 433 691 477T640 555T563 610T466 630Q392 630 339 604T252 534T202 441T186 343Q186 293 203 249T253 170T329 116T426 96ZM339 840Q342 865 361 880T401 894Q421 893 437 876T450 834Q447 809 428 794T389 780Q368 781 352 798T339 840V840ZM528
840Q531 865 550 880T590 894Q610 893 626 876T639 834Q636 809 617 794T578 780Q557 781 541 798T528 840V840Z" />
<glyph unicode="&#xd7;" horiz-adv-x="520" d="M310 251Q337 275 361 297T414 343Q431 324 447 304T480 264Q456 242 430 219T380 173Q400 151 419 128T460 80L369 0Q350 23 329 46T287 92Q263 69 237 47T186 2Q169 21 152 40T117 79Q143 102 168 124T220 171L137
265L227 346L310 251Z" />
<glyph unicode="&#xd8;" horiz-adv-x="852" d="M838 685L152 -16L105 30L792 732L838 685ZM424 -7Q359 -7 297 14T185 79T106 186T76 337Q76 403 100 472T174 601T298 696T470 733Q536 733 598 712T710 647T789 539T819 388Q819 322 794 253T720 125T597 30T424
-7ZM426 96Q499 96 552 122T640 191T692 284T709 383Q709 433 691 477T640 555T563 610T466 630Q392 630 339 604T252 534T202 441T186 343Q186 293 203 249T253 170T329 116T426 96Z" />
<glyph unicode="&#xd9;" horiz-adv-x="759" d="M216 259Q211 213 228 176T280 117T362 95Q411 95 451 117T517 176T549 259L606 726H716L659 256Q649 177 606 118T497 25T349 -8V-8Q273 -8 214 25T126 117T106 256L163 726H273L216 259ZM415 923L481 789H416L301
923H415Z" />
<glyph unicode="&#xda;" horiz-adv-x="759" d="M216 259Q211 213 228 176T280 117T362 95Q411 95 451 117T517 176T549 259L606 726H716L659 256Q649 177 606 118T497 25T349 -8V-8Q273 -8 214 25T126 117T106 256L163 726H273L216 259ZM611 923L475 789H411L497
923H611Z" />
<glyph unicode="&#xdb;" horiz-adv-x="759" d="M216 259Q211 213 228 176T280 117T362 95Q411 95 451 117T517 176T549 259L606 726H716L659 256Q649 177 606 118T497 25T349 -8V-8Q273 -8 214 25T126 117T106 256L163 726H273L216 259ZM525 789L451 888L478 896L378
789H284L472 972V972L619 789H525Z" />
<glyph unicode="&#xdc;" horiz-adv-x="759" d="M216 259Q211 213 228 176T280 117T362 95Q411 95 451 117T517 176T549 259L606 726H716L659 256Q649 177 606 118T497 25T349 -8V-8Q273 -8 214 25T126 117T106 256L163 726H273L216 259ZM307 840Q310 865 329 880T369
894Q389 893 405 876T418 834Q415 809 396 794T357 780Q336 781 320 798T307 840V840ZM496 840Q499 865 518 880T558 894Q578 893 594 876T607 834Q604 809 585 794T546 780Q525 781 509 798T496 840V840Z" />
<glyph unicode="&#xdd;" horiz-adv-x="698" d="M298 239L89 726H220L381 330L348 328L604 726H736L405 239L375 0H268L298 239ZM573 927L437 793H373L459 927H573Z" />
<glyph unicode="&#xde;" horiz-adv-x="590" d="M346 592Q397 592 440 579T514 540T561 477T578 391Q578 345 563 299T516 214T430 150T303 126H200L184 0H74L162 710H272L257 592H346ZM312 229Q356 229 385 244T433 283T459 332T467 376Q467 401 456 427T417 471T344
489H244L212 229H312Z" />
<glyph unicode="&#xdf;" horiz-adv-x="611" d="M346 -6Q312 -6 278 5T225 37L269 101Q286 86 307 79T343 72Q371 72 391 86T425 123T446 169T456 215Q459 254 447 282T412 328T355 346L350 347L360 436Q384 435 400 442T426 461T440 486T445 512Q445 543 427 562T369
583Q331 584 305 565T263 509T239 422L167 0H63L121 340H56L72 424H137L145 473Q155 538 187 581T270 646T384 667Q437 666 474 648T530 597T550 521Q550 497 542 473T515 427T463 393Q494 379 516 354T550 294T559 209Q557 172 544 133T506 62T441 12T346 -6Z"
/>
<glyph unicode="&#xe0;" horiz-adv-x="595" d="M222 -8Q177 -9 136 15T69 86T43 195Q43 238 58 280T104 358T178 415T277 437Q322 437 352 425T403 393T434 348L425 330L447 419H541L491 0H388L400 103L408 77Q402 70 388 56T350 27T295 2T222 -8ZM279 74Q307
74 332 85T377 118T408 168L418 255Q414 284 398 306T355 340T295 352Q255 352 228 338T183 301T157 254T149 207Q149 168 165 138T211 91T279 74ZM303 643L369 509H304L189 643H303Z" />
<glyph unicode="&#xe1;" horiz-adv-x="595" d="M222 -8Q177 -9 136 15T69 86T43 195Q43 238 58 280T104 358T178 415T277 437Q322 437 352 425T403 393T434 348L425 330L447 419H541L491 0H388L400 103L408 77Q402 70 388 56T350 27T295 2T222 -8ZM279 74Q307
74 332 85T377 118T408 168L418 255Q414 284 398 306T355 340T295 352Q255 352 228 338T183 301T157 254T149 207Q149 168 165 138T211 91T279 74ZM499 643L363 509H299L385 643H499Z" />
<glyph unicode="&#xe2;" horiz-adv-x="595" d="M222 -8Q177 -9 136 15T69 86T43 195Q43 238 58 280T104 358T178 415T277 437Q322 437 352 425T403 393T434 348L425 330L447 419H541L491 0H388L400 103L408 77Q402 70 388 56T350 27T295 2T222 -8ZM279 74Q307
74 332 85T377 118T408 168L418 255Q414 284 398 306T355 340T295 352Q255 352 228 338T183 301T157 254T149 207Q149 168 165 138T211 91T279 74ZM413 509L339 608L366 616L266 509H172L360 692V692L507 509H413Z" />
<glyph unicode="&#xe3;" horiz-adv-x="595" d="M222 -8Q177 -9 136 15T69 86T43 195Q43 238 58 280T104 358T178 415T277 437Q322 437 352 425T403 393T434 348L425 330L447 419H541L491 0H388L400 103L408 77Q402 70 388 56T350 27T295 2T222 -8ZM279 74Q307
74 332 85T377 118T408 168L418 255Q414 284 398 306T355 340T295 352Q255 352 228 338T183 301T157 254T149 207Q149 168 165 138T211 91T279 74ZM412 474Q375 476 353 494T312 532Q300 545 289 555T260 567Q246 568 235 558T216 529T206 486L143 491Q145 535
162 571T209 627T276 645Q306 644 326 627T362 590Q376 574 389 562T418 549Q434 548 444 559T459 589T467 634L531 629Q531 581 515 546T471 492T412 474Z" />
<glyph unicode="&#xe4;" horiz-adv-x="595" d="M222 -8Q177 -9 136 15T69 86T43 195Q43 238 58 280T104 358T178 415T277 437Q322 437 352 425T403 393T434 348L425 330L447 419H541L491 0H388L400 103L408 77Q402 70 388 56T350 27T295 2T222 -8ZM279 74Q307
74 332 85T377 118T408 168L418 255Q414 284 398 306T355 340T295 352Q255 352 228 338T183 301T157 254T149 207Q149 168 165 138T211 91T279 74ZM195 560Q198 585 217 600T257 614Q277 613 293 596T306 554Q303 529 284 514T245 500Q224 501 208 518T195 560V560ZM384
560Q387 585 406 600T446 614Q466 613 482 596T495 554Q492 529 473 514T434 500Q413 501 397 518T384 560V560Z" />
<glyph unicode="&#xe5;" horiz-adv-x="595" d="M222 -8Q177 -9 136 15T69 86T43 195Q43 238 58 280T104 358T178 415T277 437Q322 437 352 425T403 393T434 348L425 330L447 419H541L491 0H388L400 103L408 77Q402 70 388 56T350 27T295 2T222 -8ZM279 74Q307
74 332 85T377 118T408 168L418 255Q414 284 398 306T355 340T295 352Q255 352 228 338T183 301T157 254T149 207Q149 168 165 138T211 91T279 74ZM251 564Q255 607 285 631T359 653Q400 650 425 624T445 557Q442 515 411 491T339 468Q298 470 273 496T251 564ZM307
560Q305 541 315 529T344 516Q363 515 376 526T391 558Q392 579 382 590T353 603Q335 604 322 593T307 560Z" />
<glyph unicode="&#xe6;" horiz-adv-x="812" d="M542 -10Q517 -10 486 -3T424 21T371 64T336 131T330 226Q338 288 374 335T465 410T584 436Q615 435 647 426T708 394T756 333T782 236L399 162L394 220L695 282L673 270Q666 298 651 316T614 344T568 355Q534 356
505 340T457 295T432 225Q427 185 437 158T467 113T510 87T553 77Q578 77 602 84T649 106L687 27Q654 9 616 -1T542 -10ZM197 -11Q157 -11 119 3T57 45T32 114Q32 146 50 177T108 230T214 250Q241 249 263 245T304 234T340 215T373 187L349 127Q331 145 311 156T271
172T230 178Q182 179 164 159T146 115Q147 95 159 83T190 65T231 60Q258 62 285 73T330 103L340 181L382 158L369 56Q348 32 320 18T261 -4T197 -11ZM321 216L326 258Q330 288 323 306T301 334T270 347T238 351Q202 352 170 336T114 294L70 362Q106 394 153 415T263
435Q283 434 306 430T353 415T395 388T424 344T429 280L426 260L321 216Z" />
<glyph unicode="&#xe7;" horiz-adv-x="442" d="M364 103Q377 87 387 72T409 39Q378 16 341 3T263 -10Q206 -10 162 16T92 88T66 188Q66 237 86 281T141 358T222 410T317 429Q359 429 393 416T454 381Q438 365 423 349T390 316Q375 330 354 337T307 345Q264 345
229 325T173 272T152 196Q152 162 167 135T209 91T273 74Q299 74 322 82T364 103V103ZM268 -8Q266 -27 271 -36T286 -50T303 -62Q319 -75 326 -92T333 -130Q333 -162 319 -191T277 -238T209 -257Q174 -257 147 -238T110 -178Q123 -172 137 -165T164 -152Q166 -167
178 -177T209 -188Q236 -188 250 -170T265 -128Q265 -110 256 -101T234 -82T215 -60T209 -22L212 0H269L268 -8Z" />
<glyph unicode="&#xe8;" horiz-adv-x="528" d="M277 77Q300 77 322 85T365 107L402 27Q371 10 336 1T266 -9Q200 -9 150 15T71 87T43 203Q43 244 58 284T103 359T179 414T286 435Q323 435 357 426T420 394T469 333T498 236L144 140L128 201L424 284L388 270Q378
308 350 331T283 354Q239 354 209 335T162 283T146 215Q146 167 165 137T214 92T277 77ZM261 651L327 517H262L147 651H261Z" />
<glyph unicode="&#xe9;" horiz-adv-x="443" d="M277 77Q300 77 322 85T365 107L402 27Q371 10 336 1T266 -9Q200 -9 150 15T71 87T43 203Q43 244 58 284T103 359T179 414T286 435Q323 435 357 426T420 394T469 333T498 236L144 140L128 201L424 284L388 270Q378
308 350 331T283 354Q239 354 209 335T162 283T146 215Q146 167 165 137T214 92T277 77ZM417 620L281 486H217L303 620H417Z" />
<glyph unicode="&#xea;" horiz-adv-x="528" d="M277 77Q300 77 322 85T365 107L402 27Q371 10 336 1T266 -9Q200 -9 150 15T71 87T43 203Q43 244 58 284T103 359T179 414T286 435Q323 435 357 426T420 394T469 333T498 236L144 140L128 201L424 284L388 270Q378
308 350 331T283 354Q239 354 209 335T162 283T146 215Q146 167 165 137T214 92T277 77ZM371 517L297 616L324 624L224 517H130L318 700V700L465 517H371Z" />
<glyph unicode="&#xeb;" horiz-adv-x="528" d="M277 77Q300 77 322 85T365 107L402 27Q371 10 336 1T266 -9Q200 -9 150 15T71 87T43 203Q43 244 58 284T103 359T179 414T286 435Q323 435 357 426T420 394T469 333T498 236L144 140L128 201L424 284L388 270Q378
308 350 331T283 354Q239 354 209 335T162 283T146 215Q146 167 165 137T214 92T277 77ZM153 568Q156 593 175 608T215 622Q235 621 251 604T264 562Q261 537 242 522T203 508Q182 509 166 526T153 568V568ZM342 568Q345 593 364 608T404 622Q424 621 440 604T453
562Q450 537 431 522T392 508Q371 509 355 526T342 568V568Z" />
<glyph unicode="&#xec;" horiz-adv-x="260" d="M105 419H207L156 0H53L105 419ZM384 620L450 486H385L270 620H384Z" />
<glyph unicode="&#xed;" horiz-adv-x="260" d="M105 419H207L156 0H53L105 419ZM580 620L444 486H380L466 620H580Z" />
<glyph unicode="&#xee;" horiz-adv-x="260" d="M105 419H207L156 0H53L105 419ZM494 486L420 585L447 593L347 486H253L441 669V669L588 486H494Z" />
<glyph unicode="&#xef;" horiz-adv-x="260" d="M105 419H207L156 0H53L105 419ZM275 537Q278 562 297 577T337 591Q357 590 373 573T386 531Q383 506 364 491T325 477Q304 478 288 495T275 537V537ZM464 537Q467 562 486 577T526 591Q546 590 562 573T575 531Q572
506 553 491T514 477Q493 478 477 495T464 537V537Z" />
<glyph unicode="&#xf0;" horiz-adv-x="551" d="M255 -9Q233 -9 205 -3T147 18T95 59T57 126T45 224Q47 263 61 301T104 370T172 419T265 437Q296 437 327 425T385 388T426 326T440 237L405 246Q412 321 401 385T364 506T298 612T207 709L290 772Q347 724 389 667T459
547T502 420T515 296Q515 241 500 187T453 88T372 17T255 -9ZM265 75Q297 75 322 87T364 120T390 164T401 212Q405 255 392 282T358 324T316 345T281 351Q245 352 220 338T178 301T153 254T144 205Q144 156 164 128T212 88T265 75ZM492 662L231 525L205 595L468
732L492 662Z" />
<glyph unicode="&#xf1;" horiz-adv-x="562" d="M197 419V326L190 340Q218 383 264 409T372 436Q432 436 466 401T495 310L457 0H354L388 274Q391 307 375 327T320 347Q285 347 255 327T205 272T180 190L156 0H54L105 419H197ZM652 496Q615 498 593 516T552 554Q540
567 529 577T500 589Q486 590 475 580T456 551T446 508L383 513Q385 557 402 593T449 649T516 667Q546 666 566 649T602 612Q616 596 629 584T658 571Q674 570 684 581T699 611T707 656L771 651Q771 603 755 568T711 514T652 496Z" />
<glyph unicode="&#xf2;" horiz-adv-x="551" d="M267 -10Q228 -10 188 2T116 41T63 105T43 196Q43 235 56 276T98 354T173 412T286 435Q344 435 394 411T477 341T509 229Q509 203 502 171T478 107T433 49T364 6T267 -10ZM270 75Q319 75 348 99T391 158T404 225Q404
260 393 284T362 322T322 344T282 351Q235 351 205 328T161 269T147 201Q147 156 166 128T214 88T270 75ZM261 629L327 495H262L147 629H261Z" />
<glyph unicode="&#xf3;" horiz-adv-x="551" d="M267 -10Q228 -10 188 2T116 41T63 105T43 196Q43 235 56 276T98 354T173 412T286 435Q344 435 394 411T477 341T509 229Q509 203 502 171T478 107T433 49T364 6T267 -10ZM270 75Q319 75 348 99T391 158T404 225Q404
260 393 284T362 322T322 344T282 351Q235 351 205 328T161 269T147 201Q147 156 166 128T214 88T270 75ZM457 629L321 495H257L343 629H457Z" />
<glyph unicode="&#xf4;" horiz-adv-x="551" d="M267 -10Q228 -10 188 2T116 41T63 105T43 196Q43 235 56 276T98 354T173 412T286 435Q344 435 394 411T477 341T509 229Q509 203 502 171T478 107T433 49T364 6T267 -10ZM270 75Q319 75 348 99T391 158T404 225Q404
260 393 284T362 322T322 344T282 351Q235 351 205 328T161 269T147 201Q147 156 166 128T214 88T270 75ZM371 495L297 594L324 602L224 495H130L318 678V678L465 495H371Z" />
<glyph unicode="&#xf5;" horiz-adv-x="551" d="M267 -10Q228 -10 188 2T116 41T63 105T43 196Q43 235 56 276T98 354T173 412T286 435Q344 435 394 411T477 341T509 229Q509 203 502 171T478 107T433 49T364 6T267 -10ZM270 75Q319 75 348 99T391 158T404 225Q404
260 393 284T362 322T322 344T282 351Q235 351 205 328T161 269T147 201Q147 156 166 128T214 88T270 75ZM626 460Q589 462 567 480T526 518Q514 531 503 541T474 553Q460 554 449 544T430 515T420 472L357 477Q359 521 376 557T423 613T490 631Q520 630 540 613T576
576Q590 560 603 548T632 535Q648 534 658 545T673 575T681 620L745 615Q745 567 729 532T685 478T626 460Z" />
<glyph unicode="&#xf6;" horiz-adv-x="551" d="M267 -10Q228 -10 188 2T116 41T63 105T43 196Q43 235 56 276T98 354T173 412T286 435Q344 435 394 411T477 341T509 229Q509 203 502 171T478 107T433 49T364 6T267 -10ZM270 75Q319 75 348 99T391 158T404 225Q404
260 393 284T362 322T322 344T282 351Q235 351 205 328T161 269T147 201Q147 156 166 128T214 88T270 75ZM152 546Q155 571 174 586T214 600Q234 599 250 582T263 540Q260 515 241 500T202 486Q181 487 165 504T152 546V546ZM341 546Q344 571 363 586T403 600Q423
599 439 582T452 540Q449 515 430 500T391 486Q370 487 354 504T341 546V546Z" />
<glyph unicode="&#xf7;" horiz-adv-x="507" d="M211 101Q211 129 232 147T275 165Q293 165 308 150T324 113Q324 94 314 80T290 58T262 50Q241 50 226 64T211 101V101ZM247 397Q247 424 268 442T312 460Q330 460 345 446T360 409Q360 381 340 364T297 347Q277
347 262 360T247 397V397ZM106 298H471L460 208H95L106 298Z" />
<glyph unicode="&#xf8;" horiz-adv-x="523" d="M516 408Q504 395 477 369T415 307T340 231T260 151T185 76T123 14T84 -26L46 13Q58 26 84 52T146 114T220 189T299 268T374 343T436 405T475 445L516 408ZM267 -10Q228 -10 188 2T116 41T63 105T43 196Q43 235 56
276T98 354T173 412T286 435Q344 435 394 411T477 341T509 229Q509 203 502 171T478 107T433 49T364 6T267 -10ZM270 75Q319 75 348 99T391 158T404 225Q404 260 393 284T362 322T322 344T282 351Q235 351 205 328T161 269T147 201Q147 156 166 128T214 88T270
75Z" />
<glyph unicode="&#xf9;" horiz-adv-x="554" d="M185 -17Q128 -17 95 17T67 107L105 419H207L173 143Q171 112 186 92T236 71Q271 71 300 91T350 147T375 229L398 419H501L449 0H356L360 96L364 82Q347 54 320 32T259 -4T185 -17ZM282 665L348 531H283L168 665H282Z" />
<glyph unicode="&#xfa;" horiz-adv-x="554" d="M185 -17Q128 -17 95 17T67 107L105 419H207L173 143Q171 112 186 92T236 71Q271 71 300 91T350 147T375 229L398 419H501L449 0H356L360 96L364 82Q347 54 320 32T259 -4T185 -17ZM478 627L342 493H278L364 627H478Z" />
<glyph unicode="&#xfb;" horiz-adv-x="554" d="M185 -17Q128 -17 95 17T67 107L105 419H207L173 143Q171 112 186 92T236 71Q271 71 300 91T350 147T375 229L398 419H501L449 0H356L360 96L364 82Q347 54 320 32T259 -4T185 -17ZM392 531L318 630L345 638L245
531H151L339 714V714L486 531H392Z" />
<glyph unicode="&#xfc;" horiz-adv-x="554" d="M185 -17Q128 -17 95 17T67 107L105 419H207L173 143Q171 112 186 92T236 71Q271 71 300 91T350 147T375 229L398 419H501L449 0H356L360 96L364 82Q347 54 320 32T259 -4T185 -17ZM174 582Q177 607 196 622T236
636Q256 635 272 618T285 576Q282 551 263 536T224 522Q203 523 187 540T174 582V582ZM363 582Q366 607 385 622T425 636Q445 635 461 618T474 576Q471 551 452 536T413 522Q392 523 376 540T363 582V582Z" />
<glyph unicode="&#xfd;" horiz-adv-x="538" d="M75 -201L428 419H523L177 -201H75ZM206 -3L56 419H171L292 49L206 -3ZM460 620L324 486H260L346 620H460Z" />
<glyph unicode="&#xfe;" horiz-adv-x="571" d="M235 777L181 335L180 358Q192 375 215 391T269 418T338 429Q396 429 439 406T505 340T528 238Q528 157 495 102T406 18T279 -10Q228 -10 192 10T142 55L148 63L115 -201H28L148 777H235ZM434 228Q434 261 421 287T381
329T319 345Q276 345 241 325T185 272T164 196Q164 162 179 134T222 90T286 74Q330 74 363 93T415 146T434 228Z" />
<glyph unicode="&#xff;" horiz-adv-x="478" d="M75 -201L428 419H523L177 -201H75ZM206 -3L56 419H171L292 49L206 -3ZM149 537Q152 562 171 577T211 591Q231 590 247 573T260 531Q257 506 238 491T199 477Q178 478 162 495T149 537V537ZM338 537Q341 562 360
577T400 591Q420 590 436 573T449 531Q446 506 427 491T388 477Q367 478 351 495T338 537V537Z" />
<glyph unicode="&#x2013;" horiz-adv-x="516" d="M133 259H438L427 169H122L133 259Z" />
<glyph unicode="&#x2014;" horiz-adv-x="710" d="M132 259H641L630 169H121L132 259Z" />
<glyph unicode="&#x2018;" horiz-adv-x="166" d="M194 598Q182 592 170 586T145 574Q120 602 113 640T119 721Q133 720 147 718T174 714Q163 679 169 649T194 598V598Z" />
<glyph unicode="&#x2019;" horiz-adv-x="166" d="M148 574Q138 580 128 586T106 598Q130 618 143 648T154 714Q167 716 182 718T211 721Q215 679 198 641T148 574V574Z" />
<glyph unicode="&#x201a;" horiz-adv-x="148" d="M58 -55Q47 -48 37 -42T15 -30Q39 -9 52 21T63 87Q77 89 91 91T120 94Q123 51 106 12T58 -55V-55Z" />
<glyph unicode="&#x201c;" horiz-adv-x="252" d="M195 598Q183 592 171 586T145 574Q121 602 114 640T120 721Q134 720 148 718T175 714Q164 679 170 649T195 598V598ZM300 598Q288 592 276 586T251 574Q227 602 220 640T225 721Q239 720 253 718T280 714Q270
679 275 649T300 598V598Z" />
<glyph unicode="&#x201d;" horiz-adv-x="251" d="M123 574Q113 580 103 586T81 598Q105 618 118 648T128 714Q142 716 157 718T186 721Q189 679 172 641T123 574V574ZM228 574Q218 580 208 586T186 598Q210 618 223 648T234 714Q247 716 262 718T291 721Q294 679
277 641T228 574V574Z" />
<glyph unicode="&#x201e;" horiz-adv-x="358" d="M58 -55Q47 -48 37 -42T15 -30Q39 -9 52 21T63 87Q77 89 91 91T120 94Q123 51 106 12T58 -55V-55ZM164 -55Q153 -48 143 -42T121 -30Q145 -9 158 21T169 87Q183 89 197 91T226 94Q229 51 212 12T164 -55V-55Z" />
<glyph unicode="&#x2022;" horiz-adv-x="485" d="M144 290Q144 331 165 365T221 420T297 441Q332 441 359 425T401 381T417 318Q417 277 396 243T339 189T263 169Q229 169 202 185T160 229T144 290V290Z" />
<glyph unicode="&#x2039;" horiz-adv-x="397" d="M148 242Q153 246 168 260T203 295T246 338T289 380T325 415T345 434L332 329Q326 324 315 312T292 286T268 260T250 242Q255 237 263 225T280 199T297 173T310 155L298 50L148 242Z" />
<glyph unicode="&#x203a;" horiz-adv-x="398" d="M262 242Q258 246 243 260T208 295T164 338T121 380T86 415T66 434L78 329Q84 324 95 312T119 286T143 260T160 242Q156 237 148 225T130 199T113 173T100 155L113 50L262 242Z" />
</font>
</defs>
</svg>
